<?xml version="1.0" standalone="no"?>
<!DOCTYPE svg PUBLIC "-//W3C//DTD SVG 1.1//EN" "http://www.w3.org/Graphics/SVG/1.1/DTD/svg11.dtd" >
<svg xmlns="http://www.w3.org/2000/svg">
<metadata>
<json>
<![CDATA[
{
	"fontFamily": "iconfont",
	"description": "Font generated by IcoMoon.",
	"majorVersion": 1,
	"minorVersion": 0,
	"version": "Version 1.0",
	"fontId": "iconfont",
	"psName": "iconfont",
	"subFamily": "Regular",
	"fullName": "iconfont"
}
]]>
</json>
</metadata>
<defs>
<font id="iconfont" horiz-adv-x="1024">
<font-face units-per-em="1024" ascent="960" descent="-64" />
<missing-glyph horiz-adv-x="1024" />
<glyph unicode="&#x20;" horiz-adv-x="512" d="" />
<glyph unicode="&#x21;" glyph-name="alert" data-tags="alert" d="M509.724-85.334c-282.169 0-509.724 232.107-509.724 514.276s227.556 509.724 509.724 509.724 509.724-227.556 509.724-509.724c4.55-282.169-227.556-514.276-509.724-514.276zM509.724 847.644c-232.107 0-418.702-186.596-418.702-418.702s186.596-418.702 418.702-418.702c232.107 0 418.702 186.596 418.702 418.702s-186.596 418.702-418.702 418.702zM468.764 265.103c0 22.756 18.204 45.512 45.512 45.512s45.512-18.204 45.512-45.512c0-22.756-18.204-45.512-45.512-45.512s-45.512 22.756-45.512 45.512zM482.419 360.677l-13.653 295.822h81.921l-13.653-295.822h-54.612z" />
<glyph unicode="&#x23;" glyph-name="directory-hollow" data-tags="directory-hollow" d="M345.766 646.096h585.143c53.195 0 93.091 39.896 93.091 93.091s-39.896 93.091-86.442 93.091h-591.792c-46.545 0-86.442-39.896-86.442-93.091s39.896-93.091 86.442-93.091zM345.766 792.381h585.143c33.247 0 53.195-26.597 53.195-53.195 0-33.247-26.597-53.195-53.195-53.195h-585.143c-33.247 0-53.195 26.597-53.195 53.195s26.597 53.195 53.195 53.195zM937.558 207.238h-591.792c-53.195 0-93.091-39.896-93.091-93.091s39.896-93.091 93.091-93.091h585.143c53.195 0 93.091 39.896 93.091 93.091s-39.896 93.091-86.442 93.091zM937.558 60.953h-591.792c-33.247 0-53.195 26.597-53.195 53.195s26.597 53.195 53.195 53.195h585.143c33.247 0 53.195-26.597 53.195-53.195s-19.948-53.195-46.545-53.195zM937.558 519.758h-591.792c-53.195 0-93.091-39.896-93.091-93.091s39.896-93.091 93.091-93.091h585.143c53.195 0 93.091 39.896 93.091 93.091s-39.896 93.091-86.442 93.091zM937.558 373.472h-591.792c-33.247 0-53.195 26.597-53.195 53.195 0 33.247 26.597 53.195 53.195 53.195h585.143c33.247 0 53.195-26.597 53.195-53.195 6.649-33.247-19.948-53.195-46.545-53.195zM93.091 207.238c-53.195 0-93.091-39.896-93.091-93.091s39.896-93.091 93.091-93.091 93.091 39.896 93.091 93.091-46.545 93.091-93.091 93.091zM93.091 60.953c-33.247 0-53.195 26.597-53.195 53.195s19.948 53.195 53.195 53.195 53.195-26.597 53.195-53.195-26.597-53.195-53.195-53.195zM93.091 519.758c-53.195 0-93.091-39.896-93.091-93.091s39.896-93.091 93.091-93.091 93.091 39.896 93.091 93.091-46.545 93.091-93.091 93.091zM93.091 373.472c-33.247 0-53.195 26.597-53.195 53.195 0 33.247 26.597 53.195 53.195 53.195 33.247 0 53.195-26.597 53.195-53.195 0-33.247-26.597-53.195-53.195-53.195zM93.091 832.277c-53.195 0-93.091-39.896-93.091-93.091s39.896-93.091 93.091-93.091 93.091 39.896 93.091 93.091-46.545 93.091-93.091 93.091zM93.091 685.992c-33.247 0-53.195 26.597-53.195 53.195 0 33.247 26.597 53.195 53.195 53.195 33.247 0 53.195-26.597 53.195-53.195 0-33.247-26.597-53.195-53.195-53.195z" />
<glyph unicode="&#x24;" glyph-name="cabinet" data-tags="cabinet" d="M402.515 681.056h218.968c19.321 0 32.201 19.321 32.201 38.642v57.962c0 12.88-6.441 19.321-19.321 19.321s-19.321-6.441-19.321-19.321v-51.521h-212.529v51.521c0 12.88-6.441 19.321-19.321 19.321s-19.321-6.441-19.321-19.321v-51.521c0-25.762 19.321-45.083 38.642-45.083zM911.296 938.666h-798.591c-19.321 0-38.642-19.321-38.642-38.642v-946.717c0-19.321 19.321-38.642 38.642-38.642h798.591c19.321 0 38.642 19.321 38.642 38.642v946.717c0 19.321-19.321 38.642-38.642 38.642zM911.296-46.694h-798.591v289.812h798.591v-289.812zM911.296 281.761h-798.591v289.812h798.591v-289.812zM911.296 610.212h-798.591v289.812h798.591v-289.812zM402.515 30.589h218.968c19.321 0 38.642 19.321 38.642 38.642v51.521c0 12.88-6.441 19.321-19.321 19.321s-19.321-6.441-19.321-19.321v-51.521h-218.968v51.521c0 12.88-6.441 19.321-19.321 19.321s-19.321-6.441-19.321-19.321v-51.521c0-25.762 19.321-38.642 38.642-38.642zM402.515 359.044h218.968c19.321 0 32.201 12.88 32.201 32.201v57.962c0 12.88-6.441 19.321-19.321 19.321s-19.321-6.441-19.321-19.321v-51.521h-212.529v51.521c0 12.88-6.441 19.321-19.321 19.321s-19.321-6.441-19.321-19.321v-51.521c0-25.762 19.321-38.642 38.642-38.642z" />
<glyph unicode="&#x25;" glyph-name="network" data-tags="network" d="M859.022 938.666c-91.021 0-164.978-73.956-164.978-164.978 0-85.332 62.578-153.6 147.911-164.978v-164.978h-164.978c-11.378 85.332-79.644 147.911-164.978 147.911s-153.6-62.578-164.978-147.911h-182.044c-11.378 0-17.067-5.689-17.067-17.067v-182.044c-85.332-11.378-147.911-79.644-147.911-164.978 0-91.021 73.956-164.978 164.978-164.978s164.978 73.956 164.978 164.978c0 85.332-62.578 153.6-147.911 164.978v164.978h164.978c11.378-79.644 79.644-147.911 164.978-147.911s153.6 62.578 164.978 147.911h182.044c11.378 0 17.067 5.689 17.067 17.067v182.044c85.332 11.378 147.911 79.644 147.911 164.978 0 91.021-73.956 164.978-164.978 164.978zM290.133 79.645c0-68.267-56.889-130.844-125.156-130.844s-125.156 56.889-125.156 130.844c0 68.267 56.889 125.156 125.156 125.156s125.156-56.889 125.156-125.156zM512 301.511c-68.267 0-125.156 56.889-125.156 125.156s56.889 125.156 125.156 125.156 130.844-56.889 130.844-125.156-62.578-125.156-130.844-125.156zM859.022 648.534c-68.267 0-125.156 56.889-125.156 125.156s56.889 125.156 125.156 125.156c68.267 0 130.844-56.889 130.844-125.156s-62.578-125.156-130.844-125.156z" />
<glyph unicode="&#x2a;" glyph-name="plus-rounded" data-tags="plus-rounded" d="M983.041 467.626h-430.081v430.081c0 20.481-20.481 40.959-40.959 40.959s-40.959-10.239-40.959-40.959v-430.081h-430.081c-30.72 0-40.959-20.481-40.959-40.959s20.481-40.959 40.959-40.959h430.081v-430.081c0-20.481 20.481-40.959 40.959-40.959s40.959 20.481 40.959 40.959v430.081h430.081c20.481 0 40.959 20.481 40.959 40.959s-10.239 40.959-40.959 40.959z" />
<glyph unicode="&#x2b;" glyph-name="plus" data-tags="plus" d="M938.669 469.815h-383.521v383.521h-86.29v-383.521h-383.521v-86.29h383.521v-383.521h86.29v383.521h383.521z" />
<glyph unicode="&#x2c;" glyph-name="file" data-tags="file" d="M614.4 938.667h-409.6c-61.44 0-102.4-40.96-102.4-102.4v-819.201c0-51.2 40.96-102.4 102.4-102.4h614.4c51.2 0 102.4 40.96 102.4 102.4v614.4l-307.2 307.2zM614.4 795.307l163.84-163.84h-163.84v163.84zM204.8 17.067v0 0 0 819.201h307.2v-204.8c0-61.44 51.2-102.4 102.4-102.4h204.8v-512h-614.4z" />
<glyph unicode="&#x2d;" glyph-name="minus" data-tags="minus" d="M938.668 474.606v-95.879h-853.334v95.879h853.334z" />
<glyph unicode="&#x2e;" glyph-name="circle" data-tags="circle" d="M1024 426.667c0-282.77-229.23-512-512-512s-512 229.23-512 512c0 282.77 229.23 512 512 512s512-229.23 512-512z" />
<glyph unicode="&#x2f;" glyph-name="view-hidden" data-tags="view-hidden" d="M951.489 902.18l36.024-36.024-918.599-918.599-36.024 36.024 918.599 918.599zM603.701 518.368c0 50.945-40.756 91.701-91.701 91.701s-91.701-40.756-91.701-91.701 40.756-91.701 91.701-91.701l91.701 91.701zM613.891 324.776l-61.135-61.135c106.985 20.378 188.498 101.891 203.782 203.782l-61.135-61.135c-10.189-30.567-40.756-61.135-81.513-81.513zM292.935 518.368c0 40.756 10.189 76.419 30.567 106.985 61.135 20.378 127.364 35.662 188.498 35.662s127.364-15.284 188.498-35.662c0 0 0-5.094 5.094-5.094l30.567 30.567c-5.094 0-5.094 0-10.189 5.094v0h-5.094c-66.229 25.473-142.647 45.851-208.876 45.851s-142.647-20.378-208.876-45.851h-5.094c-163.026-66.229-295.483-178.309-295.483-229.255s127.364-157.93 285.294-224.16l25.473 25.473c-147.742 56.040-275.105 157.93-275.105 193.592s101.891 122.269 229.255 178.309c-5.094-20.378-10.189-50.945-10.189-81.513 0-91.701 50.945-173.214 127.364-219.065l25.473 25.473c-66.229 35.662-117.175 106.985-117.175 193.592zM868.618 579.503l-25.473-25.473c81.513-50.945 137.552-101.891 137.552-127.364 0-56.040-249.633-234.349-468.698-234.349-10.189 0-20.378 0-30.567 0l-30.567-30.567c20.378-5.094 40.756-5.094 66.229-5.094 234.349 0 509.454 198.687 509.454 275.105-5.094 30.567-66.229 91.701-157.93 147.742z" />
<glyph unicode="&#x30;" glyph-name="spin-down" data-tags="spin-down" d="M1024 682.667l-512-512-512 512z" />
<glyph unicode="&#x31;" glyph-name="spin-up" data-tags="spin-up" d="M0 170.667l512 512 512-512z" />
<glyph unicode="&#x3c;" glyph-name="left" data-tags="left" d="M972.799 474.209h-819.202l190.172 190.172c7.315 7.315 14.628 21.943 14.628 29.257 0 21.943-21.943 43.885-43.885 43.885-14.628 0-29.257-7.315-36.571-14.628l-263.314-263.314c-7.315-7.315-14.628-21.943-14.628-36.571s7.315-21.943 14.628-29.257l263.314-263.314c7.315-7.315 21.943-14.628 29.257-14.628 21.943 0 43.885 21.943 43.885 43.885 0 14.628-7.315 21.943-14.628 29.257l-182.857 190.172h826.516c21.943 0 43.885 21.943 43.885 43.885-7.315 29.257-21.943 51.2-51.2 51.2z" />
<glyph unicode="&#x3d;" glyph-name="directory" data-tags="directory" d="M108.64 341.333c-31.999 0-58.664-26.667-58.664-58.664s26.667-58.664 58.664-58.664c31.999 0 58.664 26.667 58.664 58.664s-26.667 58.664-58.664 58.664zM108.64 74.665c-31.999 0-58.664-26.667-58.664-58.664s26.667-58.664 58.664-58.664c31.999 0 58.664 26.667 58.664 58.664s-26.667 58.664-58.664 58.664zM108.64 602.666c-31.999 0-58.664-26.667-58.664-58.664s26.667-58.664 58.664-58.664c31.999 0 58.664 26.667 58.664 58.664s-26.667 58.664-58.664 58.664zM311.305 810.666h634.667c16.003 0 26.667 10.666 26.667 26.667s-10.666 26.667-26.667 26.667h-634.667c-16.003 0-26.667-10.666-26.667-26.667s10.666-26.667 26.667-26.667zM951.307 309.33h-640.001c-16.003 0-26.667-10.666-26.667-26.667s10.666-26.667 26.667-26.667h634.667c16.003 0 26.667 10.666 26.667 26.667 5.335 16.003-5.335 26.667-21.331 26.667zM951.307 575.999h-640.001c-16.003 0-26.667-16.003-26.667-31.999s10.666-26.667 26.667-26.667h634.667c16.003 0 26.667 10.666 26.667 26.667s-5.335 31.999-21.331 31.999zM108.64 896.003c-31.999 0-58.664-26.667-58.664-58.664s26.667-58.664 58.664-58.664c31.999 0 58.664 26.667 58.664 58.664s-26.667 58.664-58.664 58.664zM951.307 47.997h-640.001c-16.003 0-26.667-10.666-26.667-26.667s10.666-26.667 26.667-26.667h634.667c16.003 0 26.667 10.666 26.667 26.667 5.335 10.666-5.335 26.667-21.331 26.667z" />
<glyph unicode="&#x3e;" glyph-name="right" data-tags="right" d="M1016.633 459.817l-265.209 265.209c-14.734 7.367-22.101 14.734-36.834 14.734-29.468 0-44.201-22.101-44.201-44.201 0-14.734 7.367-22.101 14.734-29.468l191.54-191.54h-832.461c-22.101 0-44.201-22.101-44.201-51.568 0-22.101 22.101-44.201 44.201-44.201h832.461l-191.54-191.54c-14.734-7.367-14.734-14.734-14.734-29.468 0-22.101 22.101-44.201 44.201-44.201 14.734 0 22.101 7.367 29.468 14.734l265.209 265.209c7.367 7.367 14.734 22.101 14.734 29.468 0 14.734 0 29.468-7.367 36.834z" />
<glyph unicode="&#x41;" glyph-name="sort-asc" data-tags="sort-asc" d="M81.455 129.939l465.454 465.454h-81.455l477.091-465.454 81.455 81.455-477.091 465.454-34.909 46.546-512-512z" />
<glyph unicode="&#x42;" glyph-name="lock" data-tags="lock" d="M813.175 565.672h-46.381v115.953c0 140.673-114.076 254.726-254.795 254.726s-254.795-114.053-254.795-254.726c0 0 0 0 0-0.023v-115.93h-46.381c-51.177 0-92.67-41.493-92.67-92.67v-463.348c0-51.177 41.493-92.67 92.67-92.67h602.353c51.177 0 92.67 41.493 92.67 92.67v463.348c0 51.177-41.493 92.67-92.67 92.67zM550.119 210.222v-121.377c0-21.081-17.040-38.121-38.121-38.121-21.043 0-38.121 17.040-38.121 38.121v121.377c-44.297 15.744-76.242 57.639-76.242 107.349 0 63.128 51.196 114.363 114.363 114.363s114.363-51.235 114.363-114.363c0-49.748-31.945-91.605-76.242-107.349zM670.027 565.672h-316.058v87.801c0.158 87.117 70.834 157.669 158.020 157.669s157.863-70.553 158.020-157.669h0.018v-87.801z" />
<glyph unicode="&#x43;" glyph-name="calendar" data-tags="calendar" d="M830.477 795.429v100.572h-33.523v-100.572h-569.904v100.572h-33.523v-100.572h-150.857v-838.096h938.666v838.096h-150.857zM947.809-9.142h-871.619v670.477h871.619v-670.477zM947.809 694.858h-871.619v67.047h117.334v-33.523h33.523v33.523h569.904v-33.523h33.523v33.523h117.334v-67.047zM880.762 393.144h-134.096v-134.096h134.096v134.096zM847.238 292.571h-67.047v67.047h67.047v-67.047zM880.762 594.286h-134.096v-134.096h134.096v134.096zM847.238 493.714h-67.047v67.047h67.047v-67.047zM478.477 594.286h-134.096v-134.096h134.096v134.096zM444.953 493.714h-67.047v67.047h67.047v-67.047zM478.477 192.001h-134.096v-134.096h134.096v134.096zM444.953 91.429h-67.047v67.047h67.047v-67.047zM478.477 393.144h-134.096v-134.096h134.096v134.096zM444.953 292.571h-67.047v67.047h67.047v-67.047zM277.334 192.001h-134.096v-134.096h134.096v134.096zM243.809 91.429h-67.047v67.047h67.047v-67.047zM679.619 192.001h-134.096v-134.096h134.096v134.096zM646.096 91.429h-67.047v67.047h67.047v-67.047zM679.619 393.144h-134.096v-134.096h134.096v134.096zM646.096 292.571h-67.047v67.047h67.047v-67.047zM679.619 594.286h-134.096v-134.096h134.096v134.096zM646.096 493.714h-67.047v67.047h67.047v-67.047zM277.334 393.144h-134.096v-134.096h134.096v134.096zM243.809 292.571h-67.047v67.047h67.047v-67.047z" />
<glyph unicode="&#x44;" glyph-name="download" data-tags="download" d="M889.016 398.74c-9.309 0-27.927-9.309-37.236-18.618l-297.891-297.891v809.891c0 27.927-18.618 46.545-46.545 46.545s-46.545-18.618-46.545-46.545v-809.891l-307.2 307.2c-9.309 9.309-18.618 9.309-37.236 9.309-27.927 0-46.545-18.618-46.545-46.545 0-9.309 9.309-27.927 18.618-37.236l390.982-390.982c0 0 9.309-9.309 27.927-9.309s27.927 9.309 37.236 18.618l390.982 390.982c9.309 9.309 18.618 18.618 18.618 37.236-18.618 18.618-37.236 37.236-65.164 37.236z" />
<glyph unicode="&#x45;" glyph-name="expand" data-tags="expand" d="M890.381 433.997h-756.707c-13.982 0-25.246-11.321-25.246-25.246s11.265-25.246 25.246-25.246h756.707c13.925 0 25.19 11.265 25.19 25.246 0.057 13.925-11.265 25.246-25.19 25.246zM133.674 888.146h756.707c13.925 0 25.19 11.265 25.19 25.246 0.057 13.982-11.265 25.246-25.19 25.246h-756.707c-13.982 0-25.246-11.265-25.246-25.246 0-13.925 11.265-25.246 25.246-25.246zM890.381 686.289h-756.707c-13.982 0-25.246-11.265-25.246-25.19 0-13.982 11.265-25.246 25.246-25.246h756.707c13.925 0 25.19 11.265 25.19 25.246 0.057 13.925-11.265 25.19-25.19 25.19zM483.725 383.504h56.606v-400.317h-56.606v400.317zM512.028-85.305l-294.067 226.367 34.53 44.888 259.538-199.819 259.538 199.819 34.473-44.888z" />
<glyph unicode="&#x47;" glyph-name="grip" data-tags="grip" d="M438.858 870.942c0-37.926-32.508-65.016-65.016-65.016s-70.434 27.090-70.434 65.016c0 32.508 32.508 65.016 65.016 65.016s70.434-32.508 70.434-65.016zM438.858 572.953c0-37.926-32.508-65.016-65.016-65.016s-70.434 27.090-70.434 65.016c0 37.926 32.508 65.016 65.016 65.016s70.434-27.090 70.434-65.016zM438.858 274.963c0-37.926-32.508-65.016-65.016-65.016s-70.434 27.090-70.434 65.016c0 37.926 32.508 65.016 65.016 65.016s70.434-27.090 70.434-65.016zM438.858-17.608c0-37.926-32.508-65.016-65.016-65.016s-70.434 27.090-70.434 65.016c0 37.926 32.508 65.016 65.016 65.016s70.434-32.508 70.434-65.016zM720.593 870.942c0-37.926-32.508-65.016-65.016-65.016s-70.434 27.090-70.434 65.016c0 32.508 27.090 65.016 65.016 65.016s70.434-32.508 70.434-65.016zM720.593 572.953c0-37.926-32.508-65.016-65.016-65.016s-70.434 27.090-70.434 65.016c0 37.926 32.508 65.016 65.016 65.016s70.434-27.090 70.434-65.016zM720.593 274.963c0-37.926-32.508-65.016-65.016-65.016s-65.016 32.508-65.016 65.016c0 37.926 32.508 65.016 65.016 65.016s65.016-27.090 65.016-65.016zM720.593-17.608c0-37.926-32.508-65.016-65.016-65.016s-65.016 32.508-65.016 65.016c0 37.926 32.508 65.016 65.016 65.016s65.016-32.508 65.016-65.016z" />
<glyph unicode="&#x48;" glyph-name="help-rounded" data-tags="help-rounded" d="M512 896.001c-366.079 0-469.334-103.255-469.334-469.334s98.56-469.334 469.334-469.334 469.334 98.56 469.334 469.334-103.255 469.334-469.334 469.334zM512 93.442c-37.545 0-65.705 28.16-65.705 65.705s28.16 65.705 65.705 65.705c37.545 0 65.705-28.16 65.705-65.705s-28.16-65.705-65.705-65.705zM671.574 431.362l-51.625-37.545c-37.545-28.16-42.24-14.080-42.24-70.4v-28.16h-131.415v46.935c0 75.095 18.775 84.48 61.015 122.025l46.935 32.855c37.545 23.465 61.015 42.24 61.015 84.48 0 46.935-37.545 75.095-93.865 75.095-70.4-9.385-103.255-46.935-103.255-107.945v-23.465h-122.025v28.16c0 131.415 93.865 206.505 225.28 206.505 131.415-4.695 225.28-75.095 225.28-183.040 0-70.4-28.16-112.64-75.095-145.494z" />
<glyph unicode="&#x49;" glyph-name="info" data-tags="info" d="M504.243 574.062c15.516 0 31.030 7.759 46.547 15.516 15.516 15.516 15.516 31.030 15.516 46.547s-7.759 31.030-15.516 46.547c-15.516 7.759-31.030 15.516-46.547 15.516s-31.030-7.759-46.547-15.516c-7.759-15.516-15.516-31.030-15.516-46.547s7.759-31.030 15.516-46.547c15.516-15.516 31.030-15.516 46.547-15.516zM512 938.667c-287.029 0-512-224.969-512-512 0-279.273 224.969-512 512-512 279.273 0 512 224.969 512 512-7.759 287.029-232.728 512-512 512zM512-46.546c-263.757 0-473.212 209.454-473.212 473.212s209.454 473.212 473.212 473.212c263.757 0 473.212-209.454 473.212-473.212 0-255.999-217.212-473.212-473.212-473.212zM581.819 193.939c-7.759 0-7.759 7.759-15.516 15.516 0 7.759-7.759 15.516-7.759 23.271v279.273l-155.151-7.759v-31.030c7.759 0 15.516 0 23.271 0s15.516-7.759 15.516-7.759c7.759 0 7.759-7.759 15.516-15.516 0-7.759 7.759-15.516 7.759-23.271v-201.697c0-7.759 0-15.516-7.759-23.271s-7.759-7.759-15.516-15.516c0 0-7.759 0-15.516 0s-7.759 0-15.516 0v-23.271h201.697v23.271c-7.759 0-7.759 0-15.516 0s-7.759 7.759-15.516 7.759z" />
<glyph unicode="&#x4b;" glyph-name="key" data-tags="key" d="M259.161 793.283c-63.21 0-107.457-50.568-107.457-107.457 0-63.21 50.568-107.457 107.457-107.457s107.457 44.246 107.457 101.136c0 63.21-50.568 113.777-107.457 113.777zM259.161 609.975c-37.926 0-75.852 31.605-75.852 75.852 0 37.926 31.605 75.851 75.852 75.851s75.852-31.605 75.852-75.851c-6.321-44.246-37.926-75.852-75.852-75.852zM1023.999 123.261c0 0 0 0 0 0s0 0 0 0l-379.258 385.579c0 6.321 6.321 12.642 6.321 18.963s0 6.321 0 12.642 0 12.642 6.321 18.963c0 6.321 0 12.642 0 12.642 0 6.321 0 6.321 0 12.642 0 12.642 0 18.963 0 31.605 0 176.988-145.382 322.369-328.691 322.369s-328.691-145.382-328.691-328.691 145.382-328.691 328.691-328.691c12.642 0 18.963 0 31.605 0 6.321 0 6.321 0 12.642 0s12.642 0 18.963 0c6.321 0 12.642 0 18.963 6.321 6.321 0 6.321 0 12.642 0s12.642 6.321 18.963 6.321l158.025-158.025c0 0 6.321 0 6.321-6.321v0c0 0 6.321 0 6.321 0h82.173v-88.494c0-12.642 6.321-18.963 18.963-18.963h88.494v-88.494c0-12.642 6.321-18.963 18.963-18.963h183.308c12.642 0 18.963 6.321 18.963 18.963v183.308c0 0 0 0 0 6.321zM986.073-47.406h-145.382v88.494c0 12.642-6.321 18.963-18.963 18.963h-88.494v88.494c0 12.642-6.321 18.963-18.963 18.963h-101.136l-158.025 158.025c-6.321 6.321-12.642 12.642-18.963 12.642 0 0-6.321 0-6.321 0v0c-31.605-12.642-63.21-18.963-101.136-18.963-164.345 0-290.764 132.741-290.764 290.764 0 164.345 132.741 290.764 290.764 290.764 164.345 0 290.764-132.741 290.764-290.764 0-37.926-6.321-69.531-18.963-101.136v0c0 0 0-6.321 0-6.321 0-6.321 0-12.642 6.321-12.642v0l379.258-379.258v-158.025z" />
<glyph unicode="&#x4c;" glyph-name="lock-large" data-tags="lock-large" d="M522.24 314.027c-20.48 0-35.84-15.36-35.84-35.84s15.36-35.84 35.84-35.84c20.48 0 35.84 15.36 35.84 35.84s-20.48 35.84-35.84 35.84zM522.24 426.667c-81.92 0-148.48-66.56-148.48-148.48s66.56-148.48 148.48-148.48 148.48 66.56 148.48 148.48c-5.12 81.92-71.68 148.48-148.48 148.48zM522.24 170.667c-61.44 0-112.64 46.080-112.64 107.52s51.2 107.52 107.52 107.52 107.52-51.2 107.52-107.52c5.12-61.44-46.080-107.52-102.4-107.52zM778.24 534.187c0 0 0 5.12 0 0 0 5.12 0 5.12 0 0-15.36 15.36-25.6 25.6-40.96 35.84v148.48c0 122.88-97.28 220.16-215.040 220.16s-220.16-97.28-220.16-220.16v-148.48c-15.36-10.24-25.6-20.48-40.96-30.72v0 0c-66.56-71.68-107.52-158.72-107.52-261.12s40.96-194.56 107.52-261.12c66.56-61.44 158.72-102.4 261.12-102.4s194.56 40.96 261.12 107.52v0c66.56 66.56 107.52 158.72 107.52 261.12-5.12 97.28-46.080 184.32-112.64 250.88zM337.92 718.507c0 102.4 81.92 184.32 184.32 184.32s184.32-81.92 184.32-184.32v-122.88c-56.32 30.72-117.76 51.2-184.32 51.2s-128-20.48-184.32-51.2c0 0 0 122.88 0 122.88zM762.88 58.027l-61.44 61.44c-5.12 5.12-20.48 5.12-25.6 0s-5.12-20.48 0-25.6l61.44-61.44c-56.32-46.080-122.88-76.8-199.68-81.92v92.16c0 10.24-10.24 20.48-20.48 20.48s-20.48-10.24-20.48-20.48v-92.16c-76.8 5.12-148.48 35.84-199.68 81.92l61.44 61.44c5.12 5.12 5.12 20.48 0 25.6s-20.48 5.12-25.6 0l-61.44-61.44c-46.080 56.32-76.8 122.88-81.92 199.68h92.16c10.24 0 20.48 10.24 20.48 20.48s-10.24 20.48-20.48 20.48h-92.16c5.12 76.8 35.84 143.36 87.040 199.68l61.44-61.44c10.24-10.24 20.48-10.24 25.6 0 5.12 5.12 5.12 20.48 0 25.6l-61.44 61.44c56.32 46.080 122.88 76.8 199.68 81.92v-92.16c0-10.24 10.24-20.48 20.48-20.48s20.48 10.24 20.48 20.48v92.16c76.8-5.12 148.48-35.84 199.68-81.92l-61.44-61.44c-5.12-5.12-5.12-20.48 0-25.6s20.48-5.12 25.6 0l61.44 61.44c46.080-56.32 76.8-122.88 81.92-199.68h-92.16c-10.24 0-20.48-10.24-20.48-20.48s10.24-20.48 20.48-20.48h92.16c-5.12-71.68-35.84-143.36-87.040-199.68z" />
<glyph unicode="&#x4d;" glyph-name="walkthrough" data-tags="walkthrough" d="M317.44 349.867c-10.24 5.12-20.48 0-25.6-5.12-5.12-10.24-5.12-20.48 5.12-25.6s15.36-15.36 25.6-20.48c5.12-5.12 10.24-5.12 15.36-5.12s10.24 0 10.24 5.12 5.12 20.48 0 25.6c-10.24 10.24-20.48 15.36-30.72 25.6zM409.6 226.987c-5.12 10.24-10.24 20.48-15.36 30.72s-15.36 10.24-25.6 5.12c-10.24 0-15.36-10.24-10.24-20.48s10.24-20.48 15.36-30.72c5.12-5.12 10.24-10.24 15.36-10.24s5.12 0 10.24 0c10.24 5.12 15.36 15.36 10.24 25.6zM133.12 339.627c10.24 5.12 15.36 15.36 10.24 20.48-5.12 10.24-15.36 15.36-20.48 10.24-15.36-5.12-25.6-10.24-35.84-15.36s-10.24-15.36-5.12-25.6c5.12-5.12 10.24-10.24 15.36-10.24s5.12 0 10.24 5.12c5.12 10.24 15.36 15.36 25.6 15.36zM133.12 17.067c-5.12 5.12-20.48 5.12-25.6 0s-5.12-20.48 0-25.6c10.24-10.24 15.36-15.36 25.6-25.6 5.12-5.12 10.24-5.12 15.36-5.12s10.24 0 15.36 5.12 5.12 20.48 0 25.6c-15.36 10.24-20.48 20.48-30.72 25.6zM240.64 380.587c-15.36 0-25.6 5.12-35.84 5.12s-20.48-5.12-20.48-15.36 5.12-20.48 15.36-20.48 20.48 0 30.72-5.12v0 0c15.36-5.12 25.6 5.12 25.6 15.36 0 5.12-5.12 15.36-15.36 20.48zM61.44 93.867c-5.12 10.24-15.36 10.24-25.6 5.12s-10.24-15.36-5.12-25.6 15.36-20.48 25.6-30.72c5.12-5.12 10.24-5.12 15.36-5.12s10.24 0 10.24 5.12 10.24 20.48 0 25.6c-10.24 10.24-15.36 20.48-20.48 25.6zM25.6 242.347v0c10.24 0 20.48 5.12 20.48 10.24 5.12 10.24 10.24 20.48 15.36 30.72s0 20.48-5.12 25.6c-10.24 5.12-20.48 0-25.6-5.12-5.12-10.24-10.24-25.6-15.36-35.84-5.12-15.36 0-25.6 10.24-25.6zM35.84 155.307c0 5.12 0 5.12 0 10.24s0 15.36 0 25.6-5.12 20.48-15.36 20.48c-10.24-5.12-20.48-15.36-20.48-20.48 0-10.24 0-20.48 0-25.6s0-10.24 0-10.24c0-10.24 10.24-15.36 20.48-15.36v0c10.24-5.12 15.36 5.12 15.36 15.36zM768 262.827c-10.24 0-20.48-5.12-20.48-15.36 0-5.12 0-20.48-5.12-35.84 0-10.24 5.12-20.48 15.36-20.48v0c10.24 0 15.36 5.12 20.48 15.36 0 15.36 5.12 30.72 5.12 35.84 5.12 10.24-5.12 20.48-15.36 20.48zM624.64 580.267c5.12-10.24 10.24-15.36 20.48-15.36 5.12 0 10.24 5.12 10.24 10.24l40.96 71.68 76.8-40.96c5.12 0 10.24-5.12 15.36 0 10.24 5.12 15.36 10.24 15.36 20.48 0 5.12-5.12 10.24-10.24 10.24l-71.68 40.96 40.96 71.68c0 5.12 5.12 10.24 0 15.36-5.12 10.24-10.24 15.36-20.48 15.36-5.12 0-10.24-5.12-10.24-10.24l-40.96-71.68-76.8 46.080c-5.12 0-10.24 5.12-15.36 0-10.24-5.12-15.36-10.24-15.36-20.48 0-5.12 5.12-10.24 10.24-10.24v0l71.68-40.96-40.96-71.68c0-10.24 0-15.36 0-20.48zM440.32 160.427c-5.12 10.24-15.36 15.36-25.6 10.24s-15.36-15.36-10.24-25.6 10.24-20.48 15.36-35.84c5.12-5.12 10.24-10.24 15.36-10.24s5.12 0 10.24 0c10.24 5.12 15.36 15.36 10.24 25.6-5.12 15.36-10.24 25.6-15.36 35.84zM752.64 155.307c-10.24 5.12-20.48 0-20.48-10.24-5.12-10.24-5.12-20.48-10.24-30.72s0-20.48 10.24-25.6h5.12c5.12 0 15.36 5.12 15.36 10.24 5.12 10.24 10.24 25.6 15.36 35.84 0 10.24-5.12 20.48-15.36 20.48zM1018.88 733.867c-51.2 179.2-153.6 199.68-389.12 168.96-204.8-25.6-296.96-153.6-256-327.68 35.84-133.12 128-184.32 276.48-168.96l15.36 35.84c-138.24-15.36-225.28 25.6-256 143.36-35.84 148.48 40.96 256 225.28 281.6 209.92 25.6 296.96 10.24 343.040-143.36 30.72-97.28-51.2-199.68-174.080-245.76l30.72-25.6c133.12 56.32 215.040 174.080 184.32 281.6zM844.8 380.587v0l-97.28 87.040c-5.12 5.12-10.24 5.12-15.36 5.12s-10.24-5.12-10.24-10.24v0l-40.96-122.88c0-5.12 0-5.12 0-10.24 5.12-10.24 10.24-15.36 20.48-15.36l143.36 35.84c10.24 5.12 15.36 10.24 15.36 20.48-10.24 5.12-10.24 10.24-15.36 10.24zM721.92 354.987l20.48 66.56 51.2-46.080-71.68-20.48zM491.52 68.267c-5.12 10.24-15.36 10.24-25.6 5.12s-10.24-15.36-5.12-25.6c10.24-10.24 15.36-20.48 25.6-30.72 5.12-5.12 10.24-5.12 10.24-5.12 5.12 0 10.24 0 15.36 5.12s5.12 20.48 0 25.6c-5.12 10.24-15.36 15.36-20.48 25.6zM686.080 58.027c-5.12-10.24-15.36-15.36-25.6-20.48s-10.24-15.36-5.12-25.6c5.12-5.12 10.24-10.24 15.36-10.24s5.12 0 10.24 5.12c10.24 5.12 20.48 15.36 30.72 25.6 5.12 5.12 5.12 20.48 0 25.6-10.24 5.12-20.48 5.12-25.6 0zM599.040 17.067c-10.24 0-20.48 0-30.72 0s-20.48-5.12-20.48-15.36c0-10.24 5.12-20.48 15.36-20.48 5.12 0 15.36 0 25.6 0 5.12 0 10.24 0 15.36 0 10.24 0 15.36 10.24 15.36 20.48s-10.24 15.36-20.48 15.36z" />
<glyph unicode="&#x4e;" glyph-name="pin" data-tags="pin" d="M728.484 797.782c20.617 0 34.362 13.745 34.362 34.362v75.597c6.872 20.617-13.745 34.362-34.362 34.362h-439.839c-20.617 0-34.362-13.745-34.362-34.362v-75.597c0-20.617 13.745-34.362 34.362-34.362h75.597v-343.624l-103.087-103.087c-6.872-6.872-6.872-6.872-6.872-13.745s6.872-20.617 20.617-20.617h219.919v-350.497l20.617-54.98 13.745 61.852v343.624h219.919c6.872 0 20.617 6.872 20.617 20.617 0 6.872 0 6.872-6.872 13.745l-103.087 103.087v343.624h68.725zM700.994 357.943h-384.859l75.597 75.597c0 0 6.872 6.872 6.872 13.745v350.497h219.919v-350.497c0-6.872 0-6.872 6.872-13.745l75.597-75.597zM288.645 907.742h439.839v-75.597h-439.839v75.597z" />
<glyph unicode="&#x4f;" glyph-name="circle-o" data-tags="circle-o" d="M512 781.129c196.923 0 354.462-157.538 354.462-354.462s-157.538-354.462-354.462-354.462-354.462 157.538-354.462 354.462 157.538 354.462 354.462 354.462zM512 938.667c-283.569 0-512-228.431-512-512s228.431-512 512-512 512 228.431 512 512-228.431 512-512 512v0z" />
<glyph unicode="&#x50;" glyph-name="spinner" data-tags="spinner" d="M512-85.332c136.8 0 265.399 53.2 361.999 150 96.8 96.8 150 225.199 150 361.999 0 96.8-27.201 191.2-78.601 272.599-50.001 79.199-120.599 143.399-204.399 185.2l-43.001-85.6c68-33.999 125.399-86.199 166.2-150.6 41.799-66.399 63.801-143 63.801-221.6 0-229.401-186.599-416-416-416s-416 186.599-416 416c0 78.601 21.999 155.199 63.801 221.399 40.6 64.6 98.201 116.599 166.2 150.8l-43.001 85.8c-83.6-42.001-154.4-105.999-204.399-185.4-51.4-81.4-78.601-175.799-78.601-272.599 0-136.8 53.2-265.399 150-361.999 96.6-96.8 225.199-150 361.999-150z" />
<glyph unicode="&#x53;" glyph-name="settings" data-tags="settings" d="M738.299 474.755h-452.598c-130.122 0-231.956 107.492-231.956 231.956s101.834 231.956 231.956 231.956h452.598c130.122 0 231.956-101.834 231.956-231.956s-101.834-231.956-231.956-231.956zM285.703 899.067c-101.834 0-186.696-84.862-186.696-186.696s84.862-186.696 186.696-186.696h452.598c101.834 0 186.696 84.862 186.696 186.696s-79.204 186.696-186.696 186.696h-452.598zM432.797 712.371c0-81.238-65.856-147.094-147.094-147.094s-147.094 65.856-147.094 147.094c0 81.238 65.856 147.094 147.094 147.094s147.094-65.856 147.094-147.094zM738.299-85.333h-452.598c-130.122 0-231.956 101.834-231.956 231.956s101.834 226.298 231.956 226.298h452.598c130.122 0 231.956-101.834 231.956-231.956s-101.834-226.298-231.956-226.298zM285.703 333.32c-101.834 0-186.696-84.862-186.696-186.696s84.862-186.696 186.696-186.696h452.598c101.834 0 186.696 84.862 186.696 186.696s-84.862 186.696-186.696 186.696h-452.598zM885.393 140.965c0-81.238-65.856-147.094-147.094-147.094s-147.094 65.856-147.094 147.094c0 81.238 65.856 147.094 147.094 147.094s147.094-65.856 147.094-147.094z" />
<glyph unicode="&#x54;" glyph-name="thumb" data-tags="thumb" d="M983.040 191.147c-5.12 25.6-15.36 46.080-25.6 56.32 30.72 30.72 30.72 71.68 30.72 97.28 0 46.080-15.36 81.92-56.32 102.4 15.36 51.2 0 87.040-30.72 102.4-46.080 20.48-97.28 15.36-158.72 0-51.2-10.24-107.52-20.48-153.6-15.36-30.72 5.12-40.96 15.36-40.96 15.36-5.12 10.24 10.24 40.96 25.6 66.56 25.6 46.080 56.32 107.52 56.32 174.080 0 92.16-56.32 148.48-112.64 148.48-35.84 0-66.56-25.6-66.56-76.8 0-87.040-46.080-138.24-189.44-286.72-61.44-61.44-87.040-107.52-102.4-138.24-20.48-40.96-51.2-51.2-102.4-51.2v0c-10.24 0-20.48-10.24-20.48-20.48s10.24-20.48 20.48-20.48v0 0c71.68 10.24 107.52 30.72 133.12 81.92 15.36 30.72 35.84 71.68 97.28 128 148.48 148.48 199.68 204.8 199.68 312.32 0 20.48 10.24 35.84 30.72 35.84 30.72 0 76.8-35.84 76.8-112.64 0-56.32-30.72-112.64-51.2-153.6s-40.96-71.68-25.6-102.4c10.24-25.6 46.080-35.84 71.68-35.84 51.2-10.24 112.64 5.12 163.84 15.36 56.32 10.24 102.4 25.6 128 5.12 40.96-30.72 15.36-92.16 15.36-92.16s56.32-10.24 56.32-81.92c0-25.6 0-56.32-30.72-76.8l-20.48-20.48 25.6-15.36c0 0 20.48-15.36 25.6-46.080 5.12-25.6-20.48-61.44-51.2-97.28l-5.12-10.24 5.12-10.24c0 0 25.6-25.6 10.24-51.2s-76.8-66.56-276.48-66.56c-189.44 0-266.24 10.24-337.92 35.84-61.44 20.48-117.76 35.84-240.64 35.84v0c-10.24 0-20.48-5.12-20.48-15.36s10.24-15.36 15.36-20.48v0c117.76 0 174.080-10.24 230.4-30.72 71.68-25.6 148.48-40.96 348.16-40.96 163.84 0 276.48 25.6 307.2 87.040 20.48 35.84-5.12 56.32-10.24 71.68 40.96 46.080 66.56 81.92 56.32 117.76z" />
<glyph unicode="&#x55;" glyph-name="users" data-tags="users" d="M80.215 278.42c7.62 4.807 15.68 9.868 24.143 15.514 10.91 7.274 20.468 12.316 28.894 16.777 23.686 12.519 49.744 28.088 49.744 77.598 0 50.749-7.62 55.044-20.962 77.285-8.113 13.524-16.265 41.576-16.265 76.228 0 47.496 13.686 104.149 68.055 104.149s78.929-56.653 78.929-104.168c0-34.651-5.868-62.704-14-76.228-13.341-22.241-23.245-26.519-23.245-77.285 0-35.601 9.94-52.998 25.164-64.603 15.605 5.629 18.403 8.518 36.129 13.138-20.67 19.078-24.743 20.905-24.743 51.464 0 89.528 37.245 63.963 37.245 153.492 0.019 140.738-102.687 140.738-115.479 140.738s-104.645 0-104.645-140.718c0-89.528 37.245-63.963 37.245-153.492 0.019-38.398-18.493-34.743-62.339-63.983-62.1-41.357-84.085-51.171-84.085-153.511h106.708c4.788 12.92 10.854 24.981 17.691 36.55h-85.599c5.757 37.153 4.935 48.119 41.413 71.054zM749.287 280.466c-109.651 54.826-146.201 36.55-146.201 91.376 0 127.926 54.826 91.376 54.826 219.302 0 201.027-127.926 201.027-146.201 201.027s-146.201 0-146.201-201.027c0-127.926 54.826-91.376 54.826-219.302 0-54.826-36.55-36.55-146.201-91.376-95.306-47.642-146.201-73.101-146.201-219.302h767.554c0 146.201-50.896 171.66-146.201 219.302zM165.707 97.715c6.873 91.121 43.002 109.174 124.764 150.058 37.226 18.641 64.896 28.088 87.136 35.692 40.789 13.961 79.278 27.139 79.278 88.38 0 74.086-17.326 102.981-32.621 128.455-12.408 20.67-22.205 37.007-22.205 90.846 0 143.114 68.715 164.476 109.651 164.476 40.956 0 109.651-21.362 109.651-164.476 0-53.84-9.797-70.177-22.205-90.846-15.296-25.475-32.621-54.369-32.621-128.455 0-61.242 38.489-74.415 79.278-88.38 22.241-7.604 49.891-17.067 87.136-35.692 81.782-40.88 117.894-58.937 124.764-150.058h-692.005zM939.932 324.326c-43.861 29.24-62.374 25.565-62.374 63.963 0 89.528 37.245 63.963 37.245 153.492 0 140.718-91.833 140.718-104.645 140.718s-115.479 0-115.479-140.718c0-89.528 37.245-63.963 37.245-153.492 0-30.575-4.075-32.383-24.743-51.464 17.727-4.624 20.523-7.513 36.129-13.138 15.223 11.605 25.164 29.002 25.164 64.603 0 50.749-9.905 55.044-23.245 77.285-8.113 13.524-14 41.576-14 76.228 0 47.535 24.56 104.168 78.929 104.168s68.095-56.653 68.095-104.168c0-34.651-8.152-62.704-16.285-76.228-13.341-22.241-20.962-26.519-20.962-77.285 0-49.506 26.062-65.095 49.764-77.598 8.407-4.457 17.964-9.503 28.875-16.777 8.478-5.646 16.519-10.711 24.143-15.514 36.479-22.935 35.637-33.881 41.413-71.054h-85.599c6.833-11.569 12.904-23.631 17.691-36.55h106.708c-0.019 102.36-22.002 112.173-84.066 153.531z" />
<glyph unicode="&#x56;" glyph-name="view" data-tags="view" d="M727.771 655.238c0 0 0 0 0 0-1.828 0-3.657 1.828-5.486 1.828-67.657 25.6-140.8 43.886-210.284 43.886s-142.628-18.285-210.284-43.886c-1.828 0-3.657-1.828-5.486-1.828 0 0 0 0 0 0-162.743-64-296.229-177.37-296.229-228.571 0-73.142 274.286-274.286 512-274.286s512 201.143 512 274.286c0 51.2-133.485 164.572-296.229 228.571zM321.828 625.981c60.343 23.771 126.172 38.4 190.172 38.4s129.829-14.629 190.172-38.4c18.285-31.086 29.256-69.486 29.256-107.886 0-120.686-98.743-219.427-219.427-219.427s-219.427 98.743-219.427 219.427c0 40.229 10.971 76.8 29.256 107.886zM511.999 188.953c-219.427 0-471.772 182.857-471.772 237.714 0 34.743 102.4 120.686 232.229 179.2-10.971-27.428-16.457-56.686-16.457-87.771 0-140.8 115.2-256.001 256.001-256.001s256.001 115.2 256.001 256.001c0 31.086-5.486 60.343-16.457 87.771 131.657-58.515 232.229-144.456 232.229-179.2 0-54.857-252.343-237.714-471.772-237.714zM511.999 426.667c51.2 0 91.429 40.229 91.429 91.429s-40.229 91.429-91.429 91.429c-51.2 0-91.429-40.229-91.429-91.429s40.229-91.429 91.429-91.429z" />
<glyph unicode="&#x57;" glyph-name="wand" data-tags="wand" d="M1017.56 49.912l-592.503 592.503c-12.881 12.881-57.962 0-90.164-38.642s-51.522-77.283-38.642-90.164l592.503-592.503c12.881-12.881 57.962 0 90.164 38.642 38.642 32.201 51.522 77.283 38.642 90.164zM534.541 404.126c-19.321-19.321-32.201-45.082-25.761-51.522v0 0l-173.887 173.887c-6.44 6.44 6.44 25.761 25.761 51.522 25.761 19.321 45.082 32.201 51.522 25.761l173.887-173.887c-6.44 6.44-32.201-6.44-51.522-25.761zM586.063 429.887v0 0 0zM495.899 681.057l12.881 45.082 45.082 12.881-45.082 12.881-12.881 38.642-12.881-38.642-45.082-12.881 45.082-12.881 12.881-45.082zM714.868 681.057l25.761 96.604 103.044 32.201-96.604 25.761-32.201 103.044-25.761-96.604-103.044-32.201 96.604-25.761 32.201-103.044zM238.289 758.34l19.321 70.843 70.843 19.321-70.843 19.321-19.321 70.843-19.321-70.843-70.843-19.321 70.843-19.321 19.321-70.843zM727.748 578.013l-70.843-25.761 70.843-19.321 19.321-70.843 25.761 70.843 70.843 19.321-70.843 25.761-19.321 70.843-25.761-70.843zM347.774 243.12l-12.881-45.082-45.082-12.881 45.082-12.881 12.881-45.082 12.881 45.082 45.082 12.881-45.082 12.881-12.881 45.082zM167.447 442.768l-25.761-83.723-83.723-25.761 83.723-25.761 25.761-83.723 25.761 83.723 83.723 25.761-90.164 25.761-19.321 83.723zM64.403 616.654l45.082 12.881-45.082 12.881-6.44 38.642-12.881-38.642-45.082-12.881 45.082-12.881 12.881-45.082 6.44 45.082z" />
<glyph unicode="&#x58;" glyph-name="clear" data-tags="clear" d="M869.66 21.232l-762.754 762.754 47.718 47.718 762.754-762.754-47.718-47.718zM154.43 21.426l-47.718 47.718 762.754 762.754 47.718-47.718-762.754-762.754z" />
<glyph unicode="&#x59;" glyph-name="expand-arrow" data-tags="expand-arrow" d="M512.164 128.618l-512.164 513.593 82.724 82.504 429.331-430.538 429.111 430.538 82.834-82.504-511.835-513.593z" />
<glyph unicode="&#x5e;" glyph-name="close-arrow" data-tags="close-arrow" d="M511.94 724.659l512.060-513.463-82.752-82.52-429.308 430.478-429.073-430.48-82.867 82.52z" />
<glyph unicode="&#x5f;" glyph-name="minus-rounded" data-tags="minus-rounded" d="M972.799 467.627h-931.84c-20.48 0-40.96-20.48-40.96-40.96s20.48-40.96 40.96-40.96h942.080c20.48 0 40.96 20.48 40.96 40.96s-20.48 40.96-51.201 40.96z" />
<glyph unicode="&#x61;" glyph-name="account" data-tags="account" d="M512 938.667c-281.368 0-512-230.63-512-512s230.63-512 512-512c281.368 0 512 230.63 512 512s-230.63 512-512 512zM839.494 94.56c-73.802 73.802-170.667 106.091-189.116 110.702-55.352 46.126-32.289 96.865 9.226 166.054 4.613 9.226 13.837 23.063 18.449 32.289 27.676 59.964 23.063 96.865 18.449 110.702 9.226 41.513 23.063 156.828-36.9 221.405-36.9 36.9-87.639 50.739-152.217 32.289-69.189 0-119.928-23.063-152.217-64.576-55.352-73.802-27.676-179.892-18.449-207.567-13.837-50.739 13.837-87.639 23.063-96.865s87.639-124.541 18.449-193.73l-23.063-9.226c-78.414-32.289-129.154-59.964-170.667-96.865-87.639 83.028-138.377 198.342-138.377 327.494 0 258.305 207.567 465.874 465.874 465.874s465.874-207.567 465.874-465.874c0-129.154-55.352-244.468-138.377-332.107z" />
<glyph unicode="&#x62;" glyph-name="badge" data-tags="badge" d="M880.693 322.81h-254.45v-36.35h254.45v36.35zM454.879 618.803h109.050c10.386 0 20.771 10.386 20.771 20.771v181.75c0 10.386-10.386 20.771-20.771 20.771h-109.050c-10.386 0-20.771-10.386-20.771-20.771v-186.943c5.192-10.386 10.386-15.578 20.771-15.578zM475.65 800.554h72.7v-72.7h-72.7v72.7zM475.65 691.503h72.7v-36.35h-72.7v36.35zM880.693 213.76v36.35h-218.101v-36.35h218.101zM880.693 473.402h-290.801v-36.35h290.801v36.35zM273.128 463.017c0-51.929 25.964-88.278 51.929-103.857-20.771-98.664-181.75-25.964-181.75-160.978 0-10.386 10.386-20.771 20.771-20.771h405.044c10.386 0 20.771 10.386 20.771 20.771 0 135.015-160.978 67.507-181.75 160.978 25.964 15.578 51.929 51.929 51.929 103.857-5.192 62.314-41.543 119.435-93.472 119.435s-93.472-57.121-93.472-119.435zM989.744 727.853h-347.922c-10.386 0-20.771-10.386-20.771-20.771s10.386-20.771 20.771-20.771h347.922v-623.143h-955.487v623.143h347.922c10.386 0 20.771 10.386 20.771 20.771s-10.386 20.771-20.771 20.771h-347.922c-20.771 0-36.35-15.578-36.35-36.35v-623.143c0-20.771 15.578-36.35 36.35-36.35h950.295c20.771 0 36.35 15.578 36.35 36.35v623.143c5.192 20.771-10.386 36.35-31.157 36.35zM880.693 395.51h-290.801v-36.35h290.801v36.35zM880.693 546.102h-290.801v-36.35h290.801v36.35z" />
<glyph unicode="&#x63;" glyph-name="collapse" data-tags="collapse" horiz-adv-x="984" d="M69.197 839.602h845.22c15.554 0 28.199 12.582 28.199 28.199s-12.645 28.199-28.199 28.199h-845.22c-15.554 0-28.199-12.582-28.199-28.199s12.645-28.199 28.199-28.199zM914.417 13.732h-845.22c-15.554 0-28.199-12.645-28.199-28.199 0-15.617 12.645-28.199 28.199-28.199h845.22c15.554 0 28.199 12.582 28.199 28.199 0 15.554-12.645 28.199-28.199 28.199zM460.133 630.953h63.227v-658.449h-63.227v658.449zM231.691 428.944l-38.632 50.077 298.749 230.021 298.683-230.021-38.569-50.077-260.117 200.302z" />
<glyph unicode="&#x64;" glyph-name="delete" data-tags="delete" d="M373.982 52.683c13.357 0 22.261 13.357 22.261 26.713l-22.261 556.523c0 13.357-13.357 22.261-26.713 22.261s-22.261-13.357-22.261-26.713l22.261-560.974c4.453-8.904 13.357-17.809 26.713-17.809zM908.243 800.649h-186.991v44.522c0 53.426-40.070 93.496-93.496 93.496h-231.513c-48.974 0-93.496-40.070-93.496-93.496v-44.522h-186.991c-13.357 0-22.261-13.357-22.261-26.713s8.904-22.261 22.261-22.261h22.261l44.522-747.966c4.453-48.974 44.522-89.043 97.948-89.043h467.478c53.426 0 93.496 40.070 93.496 93.496l44.522 747.966h22.261c13.357 0 22.261 8.904 22.261 22.261s-8.904 22.261-22.261 22.261zM351.721 845.17c0 26.713 22.261 44.522 44.522 44.522h231.513c26.713 0 44.522-22.261 44.522-44.522v-44.522h-320.557v44.522zM792.486 3.709c0-26.713-22.261-44.522-44.522-44.522h-467.478c-26.713 0-44.522 22.261-44.522 44.522l-44.522 747.966h654.47l-53.426-747.966zM650.017 52.683c13.357 0 22.261 8.904 26.713 22.261l22.261 556.523c0 13.357-8.904 22.261-22.261 26.713-13.357 0-22.261-8.904-26.713-22.261l-22.261-560.974c0-8.904 13.357-22.261 22.261-22.261zM511.999 52.683c13.357 0 22.261 8.904 22.261 22.261v560.974c0 13.357-8.904 22.261-22.261 22.261s-22.261-8.904-22.261-22.261v-560.974c0-13.357 8.904-22.261 22.261-22.261z" />
<glyph unicode="&#x65;" glyph-name="edit" data-tags="edit" d="M92.343 242.897l235.887-235.887 532.113 532.113-235.887 235.887-532.113-532.113zM772.572 923.122l-98.743-98.743 235.887-235.887 98.743 98.743c32.914 32.914 0 65.83 0 65.83l-164.573 164.573c0 5.484-38.402 38.402-71.314 5.484zM48.457 199.011l-49.37-285.257 285.257 49.37-235.887 235.887z" />
<glyph unicode="&#x66;" glyph-name="filter" data-tags="filter" d="M506.88 938.667c-281.6 0-506.88-61.44-506.88-143.36 0-143.36 435.2-506.88 435.2-506.88v-332.8c0-20.48 20.48-40.96 40.96-40.96h71.68c20.48 0 40.96 20.48 40.96 40.96v332.8c0 0 435.2 363.52 435.2 506.88-10.24 71.68-235.52 143.36-517.12 143.36zM547.84 298.667v-343.040h-81.92v353.28c0 0-322.56 271.36-414.72 424.96 92.16-51.2 261.12-81.92 455.68-81.92s363.52 30.72 445.44 71.68c-92.16-158.72-404.48-424.96-404.48-424.96zM506.88 677.547c-261.12 0-476.16 51.2-476.16 112.64s215.040 112.64 476.16 112.64 476.16-51.2 476.16-112.64-220.16-112.64-476.16-112.64z" />
<glyph unicode="&#x67;" glyph-name="cog" data-tags="cog" d="M514.426 603.803c-97.063 0-179.564-82.501-179.564-179.564s82.501-179.564 179.564-179.564 179.564 82.501 179.564 179.564c0 101.916-82.501 179.564-179.564 179.564zM514.426 283.5c-77.651 0-145.595 63.088-145.595 145.595 0 77.651 63.088 145.595 145.595 145.595s145.595-63.088 145.595-145.595c-4.855-82.501-67.943-145.595-145.595-145.595zM1004.587 497.036v0l-131.031 38.823c-9.708 24.265-19.412 48.532-29.12 72.798l63.088 116.475c4.855 4.855 4.855 14.558-4.855 19.412l-77.651 77.651c-4.855 4.855-14.558 4.855-19.412 4.855v0l-116.475-63.088c-24.265 14.558-43.678 24.265-72.798 29.12l-38.823 131.031c0 9.708-9.708 14.558-14.558 14.558h-101.916c-9.708-9.708-14.558-14.558-19.412-24.265v0l-38.823-126.18c-19.412-9.708-43.678-19.412-63.088-29.12l-121.328 63.088c-4.855 4.855-14.558 4.855-24.265 0l-77.651-77.651c-4.855-9.708-4.855-19.412 0-24.265v0l63.088-121.328c-9.708-19.412-19.412-38.823-29.12-63.088l-126.18-38.823c-9.708 0-14.558-4.855-14.558-14.558v-111.621c0-9.708 4.855-14.558 14.558-19.412v0l131.031-38.823c4.855-24.265 14.558-43.678 24.265-63.088l-63.088-121.328c-4.855-4.855-4.855-14.558 4.855-19.412l77.651-77.651c4.855-4.855 14.558-4.855 19.412-4.855v0l121.328 63.088c19.412-9.708 43.678-19.412 63.088-29.12l38.823-131.031c0-9.708 9.708-14.558 19.412-14.558h111.621c9.708 0 14.558 4.855 19.412 14.558v0l38.823 131.031c24.265 9.708 43.678 19.412 67.943 29.12l116.475-63.088c4.855-4.855 14.558-4.855 19.412 4.855l77.651 77.651c4.855 4.855 4.855 14.558 4.855 19.412v0l-63.088 116.475c9.708 24.265 24.265 43.678 29.12 72.798l131.031 38.823c9.708 0 14.558 9.708 14.558 14.558v106.766c-14.558 9.708-19.412 14.558-24.265 19.412zM980.323 385.418l-135.886-38.823c-9.708-33.972-24.265-67.943-43.678-101.916l67.943-121.328-58.236-58.236-121.328 67.943c-29.12-19.412-63.088-33.972-97.063-38.823l-38.823-135.886h-82.501l-38.823 135.886c-33.972 9.708-67.943 24.265-97.063 38.823l-126.18-67.943-53.385 58.236 67.943 126.18c-19.412 29.12-29.12 63.088-38.823 92.208l-135.886 38.823v87.355l135.886 38.823c4.855 33.972 19.412 67.943 38.823 97.063l-67.943 121.328 58.236 58.236 126.18-67.943c24.265 19.412 58.236 33.972 92.208 43.678l38.823 135.886h82.501l38.823-135.886c33.972-9.708 67.943-24.265 101.916-43.678l121.328 67.943 58.236-58.236-67.943-121.328c14.558-29.12 29.12-63.088 38.823-97.063l135.886-38.823v-82.501z" />
<glyph unicode="&#x68;" glyph-name="help" data-tags="help" d="M512-85.333c-282.348 0-512 229.652-512 512s229.652 512 512 512c282.348 0 512-229.652 512-512s-229.652-512-512-512zM512 883.315c-251.793 0-456.648-204.854-456.648-456.648s204.854-456.648 456.648-456.648c251.793 0 456.648 204.854 456.648 456.648s-204.854 456.648-456.648 456.648zM445.412 339.434v24.022c0 11.015 1.163 21.035 3.432 30s5.757 17.491 10.405 25.628 10.572 15.941 17.935 23.635 16.217 15.61 26.569 23.856c9.079 7.14 16.771 13.505 23.027 19.095s11.347 11.181 15.223 16.716 6.698 11.292 8.412 17.325 2.546 13.064 2.546 21.088c0 12.344-4.151 22.474-12.454 30.499s-20.923 12.012-38.027 12.012c-14.944 0-30.996-3.156-48.156-9.41s-34.981-13.949-53.36-23.027l-33.1 71.679c9.3 5.424 19.428 10.517 30.333 15.388s22.251 9.188 34.042 12.951 23.747 6.754 35.812 8.913 24.022 3.266 35.701 3.266c22.030 0 41.956-2.656 59.669-7.971s32.769-13.008 45.057-23.193 21.864-22.474 28.452-36.974 9.852-31.052 9.852-49.596c0-13.617-1.495-25.793-4.539-36.477s-7.473-20.647-13.395-29.834-13.395-18.045-22.361-26.569-19.484-17.546-31.33-27.067c-9.079-7.14-16.439-13.34-22.196-18.653s-10.239-10.352-13.505-15.11-5.481-9.685-6.641-14.779-1.771-11.071-1.771-17.988v-19.484h-85.629zM434.674 228.51c0 10.186 1.439 18.764 4.373 25.793s6.973 12.675 12.178 17.049 11.292 7.473 18.322 9.41 14.556 2.935 22.527 2.935c7.583 0 14.779-0.996 21.588-2.935s12.785-5.092 17.988-9.41 9.3-10.020 12.344-17.049 4.539-15.61 4.539-25.793c0-9.742-1.495-18.045-4.539-24.963s-7.14-12.675-12.344-17.215-11.181-7.805-17.988-9.852-14.004-3.1-21.588-3.1c-8.027 0-15.497 1.052-22.527 3.1s-13.117 5.368-18.322 9.908-9.244 10.295-12.178 17.215-4.373 15.166-4.373 24.908z" />
<glyph unicode="&#x69;" glyph-name="image" data-tags="image" d="M777.312 679.563c0-51.205-41.51-92.715-92.715-92.715s-92.715 41.51-92.715 92.715c0 51.205 41.51 92.715 92.715 92.715s92.715-41.51 92.715-92.715zM1024 81.057l-318.707 335.263-129.966-129.966-217.714 221.025-357.613-426.322z" />
<glyph unicode="&#x6a;" glyph-name="idp" data-tags="idp" d="M840.534-42.667h-657.066c-79.786 0-140.8 61.014-140.8 140.8v657.066c0 79.786 61.014 140.8 140.8 140.8h657.066c79.786 0 140.8-61.014 140.8-140.8v-657.066c0-79.786-61.014-140.8-140.8-140.8zM183.466 839.681c-46.934 0-84.48-37.546-84.48-84.48v-657.066c0-46.934 37.546-84.48 84.48-84.48h657.066c46.934 0 84.48 37.546 84.48 84.48v657.066c0 46.934-37.546 84.48-84.48 84.48h-657.066zM169.386 590.933h75.094v-342.614h-75.094v342.614zM479.146 281.173v0c-18.774-28.16-42.24-37.546-75.094-37.546-75.094 0-112.64 65.706-112.64 131.414s37.546 126.72 107.946 126.72c28.16 0 56.32-14.080 75.094-37.546v0 126.72h65.706v-342.614h-61.014v32.854zM418.134 454.827c-42.24 0-61.014-37.546-61.014-79.786 0-37.546 18.774-79.786 61.014-79.786 46.934 0 56.32 37.546 56.32 79.786 4.694 42.24-9.386 79.786-56.32 79.786zM601.174 590.933h154.88c84.48 0 117.334-51.626 117.334-107.946s-32.854-107.946-117.334-107.946h-79.786v-122.026h-75.094v337.92zM676.266 431.361h56.32c32.854 0 65.706 9.386 65.706 51.626s-32.854 51.626-65.706 51.626h-56.32v-103.254z" />
<glyph unicode="&#x6b;" glyph-name="link" data-tags="link" d="M950.093 864.963c-98.483 98.248-258.172 98.272-356.63 0.072l-214.361-213.797c-1.292-1.289-2.369-2.673-3.589-3.985 24.334 5.178 49.146 7.231 73.91 6.347l178.016 177.547c79.701 79.515 208.954 79.491 288.702-0.048 79.725-79.515 79.748-208.427 0.048-287.917l-214.361-213.797c-79.701-79.515-208.954-79.467-288.702 0.048-42.973 42.86-62.569 100.061-59.243 156.165-9.092-5.871-17.73-12.696-25.698-20.642l-20.984-20.929c6.388-54.243 30.244-106.863 71.972-148.457 98.483-98.248 258.172-98.272 356.63-0.072l214.361 213.797c98.483 98.2 98.435 257.444-0.072 355.667zM396.554 22.164c-79.727-79.49-208.959-79.466-288.709 0.072-79.727 79.514-79.75 208.426-0.048 287.916l214.367 213.796c79.703 79.49 208.959 79.466 288.709-0.048 42.974-42.859 62.57-100.061 59.244-156.165 9.092 5.87 17.73 12.696 25.698 20.642l20.984 20.929c-6.389 54.219-30.244 106.838-71.974 148.457-98.486 98.247-258.178 98.271-356.64 0.072l-214.367-213.796c-98.462-98.2-98.414-257.443 0.072-355.69 98.486-98.223 258.178-98.247 356.64-0.048l214.367 213.796c1.292 1.289 2.369 2.673 3.589 3.985-24.334-5.178-49.147-7.231-73.912-6.347l-178.020-177.571z" />
<glyph unicode="&#x6c;" glyph-name="apps" data-tags="apps" d="M329.678 788.814c-19.981 0-34.966-14.985-34.966-34.966s14.985-34.966 34.966-34.966c19.981 0 34.966 14.985 34.966 34.966s-14.985 34.966-34.966 34.966zM219.787 788.814c-19.981 0-39.961-14.985-39.961-34.966s14.985-34.966 34.966-34.966c19.981 0 34.966 14.985 34.966 34.966 4.995 19.981-9.99 34.966-29.971 34.966zM109.893 788.814c-19.981 0-34.966-14.985-34.966-34.966s14.985-34.966 34.966-34.966c19.981 0 34.966 14.985 34.966 34.966s-14.985 34.966-34.966 34.966zM839.181 244.344v544.469c0 39.961-34.966 74.927-74.927 74.927h-689.326c-39.961 0-74.927-34.966-74.927-74.927v-544.469c0-39.961 34.966-74.927 74.927-74.927h694.322c34.966 0 69.932 34.966 69.932 74.927zM34.967 788.814c0 19.981 14.985 34.966 34.966 34.966h694.322c19.981 0 34.966-14.985 34.966-34.966v-109.893h-764.254v109.893zM34.967 244.344v399.609h764.254v-399.609c0-19.981-14.985-34.966-34.966-34.966h-689.326c-19.981 0-39.961 14.985-39.961 34.966zM949.075 683.916h-54.947c-9.99 0-19.981-9.99-19.981-19.981s9.99-19.981 19.981-19.981h54.947c19.981 0 34.966-14.985 34.966-34.966v-109.893h-89.912c-9.99 0-19.981-9.99-19.981-19.981s9.99-19.981 19.981-19.981h89.912v-399.609c0-19.981-14.985-34.966-34.966-34.966h-694.322c-19.981 0-34.966 14.985-34.966 34.966v54.947c0 9.99-9.99 19.981-19.981 19.981s-19.981-9.99-19.981-19.981v-49.951c0-39.961 34.966-74.927 74.927-74.927h694.322c39.961 0 74.927 34.966 74.927 74.927v544.469c-4.995 39.961-34.966 74.927-74.927 74.927z" />
<glyph unicode="&#x6d;" glyph-name="menu" data-tags="menu" d="M997.602 135.442h-966.622c-18.589 0-30.981-12.393-30.981-30.981s12.393-30.981 30.981-30.981h960.426c18.589 0 30.981 12.393 30.981 30.981 6.196 18.589-6.196 30.981-24.785 30.981zM30.983 717.892h960.426c18.589 0 30.981 12.393 30.981 30.981s-6.196 30.981-24.785 30.981h-966.622c-18.589 0-30.981-12.393-30.981-30.981s12.393-30.981 30.981-30.981zM997.602 457.648h-966.622c-18.589 0-30.981-12.393-30.981-30.981s12.393-30.981 30.981-30.981h960.426c18.589 0 30.981 12.393 30.981 30.981 6.196 18.589-6.196 30.981-24.785 30.981z" />
<glyph unicode="&#x6e;" glyph-name="undo" data-tags="undo" d="M512.001 773.886c-5.885 0-5.885 0-11.77 0v147.126c0 11.77-5.885 17.655-17.655 17.655 0 0-5.885 0-5.885-5.885v0l-258.943-158.897c-5.885-5.885-5.885-11.77-5.885-17.655s5.885-11.77 5.885-17.655v0l253.057-164.782c0 0 5.885-5.885 11.77-5.885 11.77 0 17.655 5.885 17.655 17.655v153.011c5.885 0 5.885 0 11.77 0 217.747 0 394.299-176.552 394.299-394.299s-176.552-394.299-394.299-394.299-394.299 176.552-394.299 394.299c0 11.77-5.885 17.655-17.655 17.655s-17.655-5.885-17.655-17.655c0-235.402 194.207-429.609 429.609-429.609s429.609 194.207 429.609 429.609c0 235.402-194.207 429.609-429.609 429.609z" />
<glyph unicode="&#x6f;" glyph-name="overview" data-tags="overview" d="M788.134 564.733l63.28 34.517c11.507 11.507 11.507 23.011 5.752 28.764-5.752 11.507-17.258 11.507-23.011 5.752l-63.28-34.517c-11.507-5.752-11.507-17.258-5.752-23.011 5.752-11.507 17.258-11.507 23.011-11.507zM189.843 633.768c-11.507 5.752-17.258 0-23.011-5.752s-5.752-17.258 5.752-23.011l63.28-34.517c11.507-5.752 17.258 0 23.011 5.752 5.752 11.507 0 17.258-5.752 23.011l-63.28 34.517zM512 720.059c11.507 0 17.258 5.752 17.258 17.258v74.787c0 11.507-5.752 17.258-17.258 17.258s-17.258-5.752-17.258-17.258v-74.787c0-11.507 5.752-17.258 17.258-17.258zM218.608 426.667c0 11.507-5.752 17.258-17.258 17.258h-74.787c-11.507 0-17.258-5.752-17.258-17.258s5.752-17.258 17.258-17.258h74.787c11.507 0 17.258 5.752 17.258 17.258zM235.866 288.601l-63.28-34.517c-11.507-5.752-11.507-17.258-5.752-23.011 5.752-11.507 17.258-11.507 23.011-5.752l63.28 34.517c11.507 5.752 11.507 17.258 5.752 23.011s-17.258 11.507-23.011 5.752zM788.134 288.601c-11.507 5.752-17.258 0-23.011-5.752-5.752-11.507 0-17.258 5.752-23.011l63.28-34.517c11.507-5.752 17.258 0 23.011 5.752 5.752 11.507 0 17.258-5.752 23.011l-63.28 34.517zM891.685 443.925h-74.787c-11.507 0-17.258-5.752-17.258-17.258s5.752-17.258 17.258-17.258h74.787c11.507 0 17.258 5.752 17.258 17.258s-5.752 17.258-17.258 17.258zM512 938.667c-281.888 0-512-230.112-512-512s230.112-512 512-512 512 230.112 512 512c0 281.888-230.112 512-512 512zM512-45.063c-109.303 0-207.101 34.517-287.64 97.798 74.787 74.787 172.584 120.808 287.64 120.808s212.854-46.021 287.64-120.808c-80.538-63.28-178.336-97.798-287.64-97.798zM828.404 75.747c-80.538 80.538-189.843 132.315-316.404 132.315s-235.864-51.776-316.404-132.315c-97.798 86.292-161.078 212.854-161.078 356.674 0 264.629 212.854 471.73 471.73 471.73 264.629 0 471.73-212.854 471.73-471.73 5.752-143.82-51.776-270.381-149.573-356.674zM678.831 622.262l-132.315-132.315c-11.507 5.752-23.011 11.507-34.517 11.507-40.27 0-74.787-34.517-74.787-74.787s34.517-74.787 74.787-74.787c40.27 0 74.787 34.517 74.787 74.787 0 11.507-5.752 28.764-11.507 34.517l132.315 132.315c5.752 5.752 5.752 17.258 0 23.011-5.752 11.507-17.258 11.507-28.764 5.752zM512 392.15c-23.011 0-34.517 17.258-34.517 34.517s17.258 34.517 34.517 34.517c23.011 0 34.517-17.258 34.517-34.517s-17.258-34.517-34.517-34.517zM333.664 766.083c-5.752 11.507-17.258 11.507-23.011 11.507-11.507-5.752-11.507-17.258-5.752-28.764l34.517-63.28c5.752-5.752 17.258-11.507 23.011-5.752 11.507 5.752 11.507 17.258 5.752 23.011l-34.517 63.28zM684.584 766.083l-34.517-63.28c-5.752-11.507 0-17.258 5.752-23.011 11.507-5.752 17.258 0 23.011 5.752l34.517 63.28c5.752 11.507 0 17.258-5.752 23.011s-17.258 5.752-23.011-5.752z" />
<glyph unicode="&#x70;" glyph-name="approve" data-tags="approve" d="M1017.206 784.404c-8.201 8.201-20.501 8.201-28.701 0l-623.222-672.424-328.012 340.312c-8.201 8.201-20.501 8.201-28.701 0s-12.3-20.501-4.1-28.701l344.412-356.712c0 0 0 0 0 0s0 0 0 0 4.1 0 4.1-4.1c0 0 0 0 4.1 0s4.1 0 8.201 0 4.1 0 8.201 0c0 0 0 0 4.1 0 0 0 4.1 0 4.1 4.1 0 0 0 0 0 0s0 0 0 0l639.622 688.824c4.1 8.201 4.1 20.501-4.1 28.701z" />
<glyph unicode="&#x71;" glyph-name="support" data-tags="support" d="M648.362 89.622h-267.578v102.915c-87.477 46.311-149.226 144.080-149.226 246.995 0 154.372 123.497 283.014 283.014 283.014 154.372 0 283.014-123.497 283.014-283.014 0-102.915-56.603-195.538-144.080-246.995v-102.915zM432.242 141.080h164.663v82.332l15.437 5.146c82.332 36.020 133.789 118.352 133.789 205.829 0 128.643-102.915 231.558-231.558 231.558s-231.558-102.915-231.558-231.558c0-87.477 51.457-169.809 133.789-205.829l15.437-5.146v-82.332zM370.493-3.001h288.16v-51.457h-288.16v51.457zM514.574 804.878c-15.437 0-25.729 10.292-25.729 25.729v51.457c0 15.437 10.292 25.729 25.729 25.729s25.729-10.292 25.729-25.729v-51.457c0-15.437-15.437-25.729-25.729-25.729zM205.829 676.235c-5.146 0-15.437 0-20.583 5.146l-30.875 41.165c-10.292 10.292-10.292 25.729 0 36.020s25.729 10.292 36.020 0l36.020-36.020c10.292-10.292 10.292-25.729 0-36.020-5.146-10.292-10.292-10.292-20.583-10.292zM82.332 372.637h-56.603c-15.437 0-25.729 10.292-25.729 25.729s10.292 25.729 25.729 25.729h56.603c15.437 0 25.729-10.292 25.729-25.729s-15.437-25.729-25.729-25.729zM818.171 676.235c-5.146 0-15.437 0-20.583 5.146-10.292 10.292-10.292 25.729 0 36.020l36.020 36.020c10.292 10.292 25.729 10.292 36.020 0s10.292-25.729 0-36.020l-36.020-36.020c0-5.146-10.292-5.146-15.437-5.146zM998.271 372.637h-51.457c-15.437 0-25.729 10.292-25.729 25.729s10.292 25.729 25.729 25.729h51.457c15.437 0 25.729-10.292 25.729-25.729s-10.292-25.729-25.729-25.729z" />
<glyph unicode="&#x72;" glyph-name="resend" data-tags="resend" d="M996.924 448.821c-14.771 0-24.614-9.848-24.614-24.614 0-255.999-206.771-462.769-462.769-462.769s-462.769 206.771-462.769 462.769c4.923 255.999 211.692 462.769 467.693 462.769 172.308 0 324.924-93.54 403.691-246.155h-216.614c-14.771 0-24.614-9.848-24.614-24.614s9.848-24.614 24.614-24.614h260.922c0 0 0 0 0 0s0 0 4.923 0 9.848 4.923 14.771 4.923c0 0 0 4.923 4.923 4.923 0 0 0 0 0 4.923s0 4.923 0 9.848v260.922c0 14.771-9.848 24.614-24.614 24.614s-29.537-14.771-29.537-24.614v-162.461c-93.54 137.845-251.076 221.538-418.46 221.538-285.54 0-512-226.461-512-512 0-280.616 226.461-512 512-512 280.616 0 512 226.461 512 512-4.923 14.771-14.771 24.614-29.537 24.614z" />
<glyph unicode="&#x73;" glyph-name="search" data-tags="search" d="M1013.209-36.171l-297.368 297.368c62.351 71.944 100.722 167.869 100.722 268.591 0 225.424-182.258 407.682-407.682 407.682-220.628-4.796-402.886-187.054-402.886-412.478s182.258-407.682 407.682-407.682c105.518 0 196.646 38.37 268.591 100.722l297.368-297.368c9.592-9.592 23.981-9.592 33.574 0 9.592 14.389 9.592 33.574 0 43.167zM413.677 170.067c-201.442 0-359.719 158.277-359.719 354.924s158.277 359.719 359.719 359.719c196.646 0 359.719-158.277 359.719-359.719s-163.073-354.924-359.719-354.924z" />
<glyph unicode="&#x74;" glyph-name="admin-account" data-tags="admin-account" d="M972.514 887.181h-921.028c-28.603 0-51.486-22.883-51.486-51.486v-205.944c0-28.603 22.883-51.486 51.486-51.486v-612.112h921.028v612.112c28.603 0 51.486 22.883 51.486 51.486v205.944c0 28.603-22.883 51.486-51.486 51.486zM921.028 17.639h-818.057v560.626h818.057v-560.626zM972.514 629.751h-921.028v205.944h921.028v-205.944zM406.168 275.069h205.944c57.206 0 102.972 45.765 102.972 102.972s-45.765 102.972-102.972 102.972h-205.944c-57.206 0-102.972-45.765-102.972-102.972s51.486-102.972 102.972-102.972zM406.168 429.528h205.944c28.603 0 51.486-22.883 51.486-51.486s-22.883-51.486-51.486-51.486h-205.944c-28.603 0-51.486 22.883-51.486 51.486s28.603 51.486 51.486 51.486z" />
<glyph unicode="&#x75;" glyph-name="user" data-tags="user" d="M978.427-63.888c0 128.67-96.503 171.56-171.56 203.728-21.445 10.723-37.529 16.084-53.613 26.806-10.723 10.723-21.445 16.084-32.168 21.445-42.89 26.806-64.335 37.529-64.335 107.225 0 91.141 75.058 150.115 75.058 150.115l10.723 5.361v5.361c26.806 53.613 10.723 96.503 5.361 117.948 53.613 123.309-10.723 225.173-26.806 241.257-37.529 101.864-112.586 123.309-171.56 123.309-69.696 0-128.67-32.168-128.67-32.168-64.335-26.806-107.225-64.335-134.031-117.948-37.529-91.141-5.361-187.644 10.723-214.45-26.806-75.058 5.361-117.948 5.361-123.309l5.361-5.361c0 0 75.058-58.974 75.058-150.115s-48.251-107.225-112.586-128.67l-10.723-5.361c-69.696-21.445-214.45-69.696-214.45-225.173v-21.445h932.859v21.445zM88.458-42.443c10.723 112.586 123.309 144.754 187.644 166.199l10.723 5.361c64.335 21.445 139.393 48.251 139.393 166.199 0 101.864-75.058 171.56-91.141 182.283-5.361 10.723-16.084 37.529 5.361 85.78l5.361 10.723-5.361 5.361c0 0-48.251 101.864-10.723 193.005 16.084 42.89 53.613 75.058 107.225 96.503 0 0 53.613 26.806 112.586 26.806 64.335 0 107.225-32.168 134.031-101.864v-10.723c0 0 75.058-96.503 21.445-209.089l-5.361-10.723 5.361-10.723c0 0 21.445-37.529 0-80.419-16.084-16.084-91.141-80.419-91.141-182.283 0-91.141 32.168-117.948 80.419-144.754 10.723-5.361 21.445-10.723 32.168-21.445 16.084-10.723 37.529-21.445 58.974-32.168 64.335-26.806 128.67-58.974 144.754-144.754h-841.717z" />
<glyph unicode="&#x76;" glyph-name="dropdown-arrow" data-tags="dropdown-arrow" d="M512.060 128.674l-512.060 513.463 82.753 82.52 429.308-430.478 429.073 430.48 82.867-82.52z" />
<glyph unicode="&#x77;" glyph-name="welcome" data-tags="welcome" d="M429.406 509.169c0 46.408-36.095 87.661-87.661 87.661-46.408 0-87.661-36.095-87.661-87.661 0-46.408 36.095-87.661 87.661-87.661 46.408 5.158 87.661 41.252 87.661 87.661zM300.496 509.169c0 25.783 20.625 46.408 41.252 46.408 25.783 0 41.252-20.625 41.252-41.252 0-25.783-20.625-41.252-41.252-41.252-20.625-5.158-41.252 15.471-41.252 36.095zM707.854 297.757c-5.158 0-5.158 0-10.312-5.158v0c0 0-72.19-61.878-180.475-61.878s-180.475 61.878-180.475 61.878v0c-5.158 0-5.158 5.158-10.312 5.158-15.471 0-25.783-10.312-25.783-20.625s5.158-15.471 10.312-15.471v0c5.158-5.158 77.346-67.032 201.1-67.032 128.91 0 201.1 67.032 201.1 67.032v0c5.158 5.158 10.312 10.312 10.312 15.471 5.158 10.312-5.158 20.625-15.471 20.625zM682.071 596.83c-46.408 0-87.661-36.095-87.661-87.661 0-46.408 36.095-87.661 87.661-87.661 46.408 0 87.661 36.095 87.661 87.661 0 46.408-36.095 87.661-87.661 87.661zM682.071 467.919c-25.783 0-41.252 20.625-41.252 41.252 0 25.783 20.625 41.252 41.252 41.252 25.783 0 41.252-20.625 41.252-41.252 5.158-20.625-15.471-41.252-41.252-41.252zM578.943 895.902h-134.068c-299.072 0-402.199-103.127-402.199-402.199v-134.068c0-304.228 103.127-402.199 402.199-402.199h134.068c304.228 0 402.199 103.127 402.199 402.199v134.068c5.158 299.072-97.973 402.199-402.199 402.199zM939.89 359.635c0-278.448-82.502-360.95-360.95-360.95h-134.068c-278.448 0-360.95 82.502-360.95 360.95v134.068c0 278.448 82.502 360.95 360.95 360.95h134.068c278.448 0 360.95-82.502 360.95-360.95v-134.068z" />
<glyph unicode="&#x78;" glyph-name="close" data-tags="close" d="M509.945-85.334c-279.647 0-509.944 230.297-509.944 514.056s230.297 509.944 509.944 509.944 509.944-230.297 509.944-509.944-226.186-514.056-509.944-514.056zM509.945 897.543c-259.085 0-468.82-209.735-468.82-468.82s209.735-468.82 468.82-468.82c259.085 0 468.82 209.735 468.82 468.82 4.113 259.085-205.621 468.82-468.82 468.82zM293.638 676.645l465.267-465.267-29.078-29.078-465.267 465.267 29.078 29.078zM729.826 676.645l29.078-29.078-465.267-465.267-29.078 29.078 465.267 465.267z" />
<glyph unicode="&#x79;" glyph-name="success" data-tags="success" d="M0 387.555l384-348.444 640 604.444-177.777 170.668-476.444-476.444-206.222 206.222z" />
<glyph unicode="&#x7a;" glyph-name="puzzle" data-tags="puzzle" d="M954.88 529.067c71.68 40.96 87.040 102.4 46.080 168.96-40.96 71.68-102.4 87.040-174.080 46.080-35.84-20.48-51.2-51.2-61.44-76.8l-112.64 189.44c0 10.24-10.24 10.24-20.48 5.12l-199.68-112.64c-10.24 0-10.24-10.24-10.24-15.36s5.12-10.24 10.24-15.36c15.36-5.12 25.6-15.36 30.72-30.72 30.72-51.2 20.48-92.16-35.84-122.88-51.2-30.72-87.040-20.48-122.88 35.84-5.12 10.24-10.24 25.6-10.24 40.96 0 5.12-5.12 10.24-10.24 15.36s-10.24 5.12-15.36 0l-199.68-112.64c-10.24-5.12-15.36-15.36-10.24-20.48l112.64-189.44c-30.72 5.12-61.44 10.24-102.4-10.24-71.68-40.96-87.040-102.4-46.080-168.96 40.96-71.68 102.4-87.040 174.080-46.080 35.84 20.48 51.2 51.2 61.44 76.8l112.64-189.44c5.12-10.24 15.36-10.24 25.6-5.12l215.040 117.76c5.12 5.12 10.24 10.24 10.24 15.36s-5.12 15.36-10.24 15.36c-20.48 10.24-40.96 15.36-51.2 40.96-30.72 51.2-20.48 92.16 35.84 122.88s92.16 20.48 128-30.72c10.24-20.48 10.24-40.96 10.24-66.56 0-5.12 0-15.36 5.12-15.36 5.12-5.12 15.36-5.12 20.48 0l215.040 117.76c10.24 5.12 10.24 15.36 5.12 25.6l-112.64 189.44c15.36-10.24 51.2-15.36 87.040 5.12zM857.6 554.667c-10.24 5.12-25.6 5.12-35.84 5.12-5.12 0-15.36-5.12-15.36-10.24-5.12-5.12-5.12-10.24 0-20.48l122.88-204.8-168.96-92.16c0 15.36-5.12 35.84-15.36 51.2-40.96 71.68-102.4 87.040-174.080 46.080s-87.040-102.4-46.080-168.96c10.24-20.48 25.6-30.72 40.96-40.96l-168.96-92.16-122.88 204.8c-5.12 5.12-10.24 10.24-15.36 10.24s-15.36-5.12-15.36-10.24c-5.12-10.24-10.24-20.48-10.24-30.72-10.24-25.6-15.36-51.2-46.080-66.56-56.32-30.72-92.16-20.48-128 30.72-30.72 51.2-20.48 92.16 35.84 122.88 25.6 15.36 51.2 10.24 81.92 5.12 10.24 0 25.6-5.12 35.84-5.12 5.12 0 15.36 5.12 15.36 10.24 5.12 5.12 5.12 10.24 0 20.48l-122.88 204.8 158.72 92.16c0-10.24 5.12-20.48 15.36-35.84 40.96-71.68 102.4-87.040 174.080-46.080s87.040 102.4 46.080 168.96c-10.24 15.36-15.36 20.48-25.6 30.72l158.72 92.16 122.88-204.8c5.12-10.24 10.24-15.36 15.36-15.36s15.36 5.12 15.36 10.24c5.12 10.24 10.24 20.48 10.24 30.72 10.24 25.6 15.36 51.2 46.080 66.56 56.32 30.72 92.16 20.48 128-30.72 30.72-51.2 20.48-92.16-35.84-122.88-25.6-15.36-51.2-10.24-76.8-5.12z" />
<glyph unicode="&#x7b;" glyph-name="previous" data-tags="previous" d="M852.438-85.333c-18.552 0-27.828 9.277-37.104 18.552l-306.108 491.628 306.108 491.628c9.277 18.552 46.38 27.828 64.932 18.552s27.828-46.38 18.552-64.932l-269.004-435.972 269.004-435.972c9.277-18.552 9.277-46.38-18.552-64.932-9.277-18.552-18.552-18.552-27.828-18.552zM462.845-85.333c-18.552 0-27.828 9.277-37.104 18.552l-306.108 491.628 306.108 491.628c9.277 18.552 46.38 27.828 64.932 18.552s27.828-46.38 18.552-64.932l-269.004-435.972 269.004-435.972c9.277-18.552 9.277-46.38-18.552-64.932-9.277-18.552-18.552-18.552-27.828-18.552z" />
<glyph unicode="&#x7c;" glyph-name="sort-none" data-tags="sort-none" d="M228.324 537.37l304.432 318.27h-41.514l304.432-318.27 55.351 55.351-318.27 318.27-13.838 27.676-345.946-345.946zM795.676 302.126l-304.432-304.432h41.514l-304.432 304.432-55.351-55.351 318.27-304.432 27.676-27.676 13.838 27.676 318.27 304.432z" />
<glyph unicode="&#x7d;" glyph-name="next" data-tags="next" d="M594.113-85.333l-77.283 57.962 280.151 454.038-280.151 454.038 77.283 57.962 318.793-512zM188.377-85.333l-77.283 57.962 280.151 454.038-280.151 454.038 77.283 57.962 318.793-512z" />
<glyph unicode="&#x7e;" glyph-name="slider" data-tags="slider" d="M17.068 787.91h733.861v-73.954c0-22.757 17.067-34.133 34.133-34.133h34.133c22.757 0 34.133 17.067 34.133 34.133v73.954h147.912c11.376 0 17.067 5.691 17.067 17.067s-5.691 17.067-17.067 17.067h-147.912v79.644c0 22.757-17.067 34.133-34.133 34.133h-34.133c-22.757 0-34.133-17.067-34.133-34.133v-73.954h-733.861c-11.376 0-17.067-11.376-17.067-22.757 0-5.691 5.691-17.067 17.067-17.067zM785.067 901.688h34.133v-182.043h-34.133v182.043zM1006.932 440.89h-733.861v73.954c0 22.757-17.067 34.133-34.133 34.133h-39.821c-17.067 0-34.133-11.376-34.133-34.133v-73.954h-147.912c-11.376 0-17.067-5.691-17.067-17.067s5.691-17.067 17.067-17.067h147.912v-73.954c0-22.757 17.067-34.133 34.133-34.133h34.133c22.757 0 34.133 17.067 34.133 34.133v73.954h733.861c17.067 0 22.757 5.691 22.757 17.067s-5.691 17.067-17.067 17.067zM238.933 332.801h-39.821v182.043h34.133l5.691-182.043zM1006.932 59.735h-364.087v73.954c0 22.757-17.067 34.133-34.133 34.133h-39.821c-22.757 0-34.133-17.067-34.133-34.133v-73.954h-511.998c-11.376 0-17.067-5.691-17.067-17.067s5.691-17.067 17.067-17.067h511.998v-73.954c0-22.757 17.067-34.133 34.133-34.133h34.133c22.757 0 34.133 17.067 34.133 34.133v73.954h364.087c11.376 0 17.067 5.691 17.067 17.067 5.691 5.691 0 17.067-11.376 17.067zM603.020-54.042h-34.133v182.043h34.133v-182.043z" />
<glyph unicode="&#x7f;" glyph-name="sp" data-tags="sp" d="M840.534-42.667h-657.066c-79.786 0-140.8 61.014-140.8 140.8v657.066c0 79.786 61.014 140.8 140.8 140.8h657.066c79.786 0 140.8-61.014 140.8-140.8v-657.066c0-75.094-65.706-140.8-140.8-140.8zM183.466 839.681c-46.934 0-84.48-37.546-84.48-84.48v-657.066c0-46.934 37.546-84.48 84.48-84.48h657.066c46.934 0 84.48 37.546 84.48 84.48v657.066c0 46.934-37.546 84.48-84.48 84.48h-657.066zM291.414 384.427c0-46.934 37.546-61.014 75.094-61.014 28.16 0 65.706 9.386 65.706 42.24 0 37.546-51.626 42.24-103.254 56.32-46.934 14.080-98.56 32.854-98.56 93.866 0 70.4 65.706 103.254 126.72 103.254 70.4 0 136.106-32.854 136.106-107.946h-70.4c-4.694 42.24-32.854 51.626-70.4 51.626-23.466 0-51.626-9.386-51.626-37.546s14.080-28.16 103.254-51.626c23.466-4.694 103.254-23.466 103.254-98.56 0-61.014-46.934-107.946-140.8-107.946-75.094 0-145.494 37.546-145.494 122.026h70.4zM549.546 614.401h154.88c84.48 0 117.334-51.626 117.334-107.946s-32.854-107.946-117.334-107.946h-79.786v-122.026h-75.094v337.92zM624.64 454.827h56.32c32.854 0 65.706 9.386 65.706 51.626s-32.854 51.626-65.706 51.626h-56.32v-103.254z" />
<glyph unicode="&#xa1;" glyph-name="globe" data-tags="globe" d="M512 938.667c-284.443 0-512-227.556-512-512s227.556-512 512-512 512 227.556 512 512-227.556 512-512 512zM392.534 887.466c-45.512-39.822-79.644-102.399-108.088-176.356-39.822 11.378-73.956 34.133-102.399 56.89 56.89 56.89 130.843 96.71 210.49 119.466zM159.289 745.245c34.133-28.444 68.268-51.201 113.777-68.268-22.756-68.268-34.133-147.911-34.133-227.556h-199.111c0 108.088 45.512 216.179 119.466 295.821zM39.823 409.6h199.111c0-85.332 11.378-159.289 34.133-227.556-45.512-17.067-79.644-39.822-113.777-68.268-73.956 73.956-119.466 182.044-119.466 295.821zM182.044 85.334c28.444 22.756 62.579 45.512 102.399 56.89 28.444-73.956 62.579-136.533 108.088-176.356-79.644 22.756-153.6 62.579-210.49 119.466zM494.933-45.51c-73.956 11.378-136.533 91.021-176.356 204.8 51.201 17.067 113.777 28.444 176.356 28.444v-233.244zM494.933 227.556c-68.268 0-130.843-11.378-187.733-34.133-17.067 62.579-28.444 136.533-34.133 216.179h216.179l5.689-182.044zM494.933 443.734h-221.868c0 79.644 11.378 153.6 28.444 216.179 56.89-17.067 119.466-28.444 187.733-34.133l5.689-182.044zM494.933 665.599c-62.579 0-125.155 11.378-176.356 28.444 39.822 113.777 102.399 193.422 176.356 204.8v-233.244zM984.177 443.734h-199.111c0 85.332-11.378 159.289-34.133 227.556 45.512 17.067 79.644 39.822 113.777 68.268 73.956-73.956 119.466-182.044 119.466-295.821zM841.956 768c-28.444-22.756-62.579-45.512-102.399-56.89-28.444 73.956-62.579 136.533-108.088 176.356 79.644-22.756 153.6-62.579 210.49-119.466zM529.067 898.844c73.956-11.378 136.533-91.021 176.356-204.8-51.201-17.067-113.777-28.444-176.356-28.444 0 0 0 233.244 0 233.244zM529.067 625.778c68.268 0 130.843 11.378 187.733 34.133 17.067-62.579 28.444-136.533 28.444-216.179h-216.179v182.044zM529.067 409.6h216.179c0-79.644-11.378-153.6-28.444-216.179-56.89 17.067-119.466 28.444-187.733 34.133v182.044zM529.067-45.51v233.244c62.579 0 125.155-11.378 176.356-28.444-39.822-119.466-102.399-193.422-176.356-204.8zM631.466-34.132c45.512 39.822 79.644 102.399 108.088 176.356 39.822-17.067 73.956-34.133 102.399-62.579-56.89-51.201-130.843-91.021-210.49-113.777zM864.711 108.089c-34.133 28.444-68.268 51.201-113.777 68.268 22.756 68.268 34.133 147.911 34.133 227.556h199.111c0-108.088-45.512-216.179-119.466-295.821z" />
<glyph unicode="&#x20ac;" glyph-name="server" data-tags="server" d="M512-59.735c-281.599 0-512 220.16-512 486.402s230.401 486.402 512 486.402 512-220.16 512-486.402c0-266.241-230.401-486.402-512-486.402zM512 856.749c-250.88 0-450.562-194.561-450.562-430.082s204.801-430.082 450.562-430.082 450.562 194.561 450.562 430.082-199.679 430.082-450.562 430.082zM686.079 703.149h-358.401l-148.481-384.002 25.599-153.599h599.038l25.599 153.599-143.358 384.002zM768 201.388h-532.482l-10.24 76.803h552.958l-10.24-76.803z" />
<glyph unicode="&#x2200;" glyph-name="sort-desc" data-tags="sort-desc" d="M942.545 723.394l-477.091-465.454h81.455l-465.454 465.454-81.455-81.455 512-512 34.909 46.546 477.091 465.454z" />
<glyph unicode="&#xe444;" glyph-name="bell" data-tags="bell" d="M896 149.334v-42.667h-768v42.667l85.333 85.333v256c0 132.267 86.613 248.747 213.333 286.293 0 4.267 0 8.107 0 12.373 0 47.128 38.205 85.333 85.333 85.333v0c47.128 0 85.333-38.205 85.333-85.333v0c0-4.267 0-8.107 0-12.373 126.72-37.547 213.333-154.027 213.333-286.293v-256l85.333-85.333zM597.333 64.001c0-47.128-38.205-85.333-85.333-85.333v0c-47.128 0-85.333 38.205-85.333 85.333v0z" />
<glyph unicode="&#xe900;" glyph-name="kebab" data-tags="kebab" horiz-adv-x="256" d="M256 810.667c0-70.692-57.308-128-128-128s-128 57.308-128 128c0 70.692 57.308 128 128 128s128-57.308 128-128zM256 426.667c0-70.692-57.308-128-128-128s-128 57.308-128 128c0 70.692 57.308 128 128 128s128-57.308 128-128zM256 42.667c0-70.692-57.308-128-128-128s-128 57.308-128 128c0 70.692 57.308 128 128 128s128-57.308 128-128z" />
<glyph unicode="&#xe901;" glyph-name="star" data-tags="star" d="M512 168.14l-301.944-157.044 56.049 335.692-242.657 238.638 336.575 50.42 151.977 304.517 151.977-304.517 336.575-50.42-242.657-238.638 56.049-335.692z" />
<glyph unicode="&#xe902;" glyph-name="star-outline" data-tags="star-outline" d="M205.889-39.9l56.846 340.433-246.047 241.971 341.183 51.054 154.128 308.793 154.128-308.793 341.183-51.054-246.047-241.971 56.846-340.433-306.111 159.276zM512 167.749l249.694-129.888-45.906 277.58 200.141 197.031-278.224 42.045-125.705 251.732-125.705-251.732-278.224-42.045 200.141-197.031-45.906-277.58z" />
<glyph unicode="&#xe903;" glyph-name="pf-applications-integration" data-tags="pf-applications-integration" d="M246.688 196.64v-144.288c0-51.2 41.888-93.088 93.088-93.088h465.44c51.2 0 93.088 41.888 93.088 93.088v837.824c0 51.2-41.888 93.088-93.088 93.088h-465.44c-51.2 0-93.088-41.888-93.088-93.088v-139.648h93.088v93.088h465.44v-744.736h-465.44v97.76h-93.088zM512 741.248l-279.264-283.936-111.712 111.712-93.088-93.088 204.8-204.8 372.352 377.024z" />
<glyph unicode="&#xe904;" glyph-name="pf-applications-oauth" data-tags="pf-applications-oauth" d="M258.336 157.088v-145.696c0-51.2 41.888-93.088 93.088-93.088h465.44c51.2 0 93.088 41.888 93.088 93.088v837.824c0 51.2-41.888 92.64-93.088 92.64l-465.44 0.48c-51.2 0-93.088-41.888-93.088-93.088v-138.24l93.088-0.928v92.16h465.44v-744.736h-465.44v99.136l-93.088 0.48zM275.072 641.632c-54.912 0-67.488-50.72-67.488-50.72l-109.856-352.8c-0.48-3.712-0.928-7.456-0.928-11.168 0-35.84 28.864-65.152 65.152-65.152 27.008 0 50.272 16.768 60.032 40.48l27.456 73.088h110.784l25.6-74.016c9.76-23.264 33.056-39.552 59.584-39.552 35.84 0 65.152 28.864 65.152 65.152 0 5.12-0.48 10.72-1.856 15.36l-113.568 351.424c0 0-9.76 47.936-64.704 47.936h-55.392z" />
<glyph unicode="&#xe905;" glyph-name="alert-solid" data-tags="alert-solid" d="M512 938.667c-282.504 0-512-229.496-512-512s229.496-512 512-512c282.504 0 512 229.496 512 512s-229.496 512-512 512zM566.212 752.54l-15.060-426.466h-69.874l-15.66 426.466h100.594zM515.613 140.55c-30.72 0-55.416 26.505-55.416 56.019 0 30.72 24.094 56.019 55.416 56.019 30.72 0 56.621-25.299 56.621-56.019 0-29.515-25.901-56.019-56.621-56.019z" />
<glyph unicode="&#xe906;" glyph-name="as" data-tags="as" d="M143.146 890.677c-45.615-12.261-85.345-51.504-97.118-96.628-3.434-12.261-4.905-146.66-3.925-378.173 1.472-341.385 1.963-360.515 10.79-376.701 17.658-32.862 37.767-53.463 65.728-67.199l27.957-13.732h730.843l25.015 13.245c27.469 14.716 50.032 37.767 66.708 69.161l11.282 20.601v367.874c0 351.196-0.492 368.854-9.319 385.042-17.658 32.862-37.767 53.463-65.728 67.199l-27.957 13.732-355.61 0.98c-276.149 0.98-360.515-0.492-378.665-5.397zM877.42 832.8c20.109-10.79 34.825-27.469 44.144-49.050 6.377-16.188 7.356-62.294 7.356-358.064 0-319.314-0.98-340.897-9.319-359.535-9.811-22.563-33.846-44.636-53.463-50.52-17.166-4.414-691.112-4.414-708.28 0-19.621 5.885-43.656 27.957-53.463 50.52-8.339 18.638-9.319 40.222-9.319 360.515s0.98 341.877 9.319 360.515c10.301 23.054 34.333 45.128 53.463 49.541 7.356 1.472 15.696 3.434 18.15 4.414 2.942 0.98 158.429 1.472 345.803 0.98 307.052-0.98 342.369-1.963 355.61-9.319zM673.375 613.057c-65.728-11.282-101.533-56.897-90.742-115.268 5.397-28.94 37.767-56.897 86.817-75.537 22.563-8.828 47.086-18.15 53.955-20.601 34.825-13.732 44.636-44.144 20.601-63.274-11.774-9.319-18.638-10.301-45.128-8.828-26.485 1.963-32.862 3.925-42.673 15.696-6.377 7.356-11.774 18.638-11.774 25.506 0 11.282-0.98 11.774-36.788 11.774h-36.788v-13.245c0.492-37.767 36.788-79.46 80.44-92.214 28.94-8.828 78.482-9.319 107.909-1.963 26.485 6.377 55.917 30.412 64.744 51.504 16.677 39.731 1.472 89.763-33.846 114.286-11.282 7.847-41.201 21.58-66.708 30.412-25.015 9.319-51.012 21.58-57.389 27.469-25.998 24.035-4.905 57.389 36.788 57.389 29.43 0 49.050-11.774 52.975-31.39 2.452-14.716 2.942-14.716 38.751-14.716 34.333 0 36.296 0.492 36.296 11.282-0.492 16.188-16.677 48.559-32.374 63.274-26.977 25.015-77.99 36.788-125.075 28.448zM277.053 450.21c-33.354-89.763-61.802-166.278-62.784-169.223-1.963-4.905 7.356-6.377 36.788-6.377h39.731l10.79 34.333 11.282 34.825 117.228-2.942 21.58-63.766 79.952-2.942-7.356 18.638c-3.925 10.301-32.374 85.837-63.274 168.239l-55.917 149.602-67.199 2.942-60.823-163.334zM407.033 410.971c2.452-7.847-0.98-8.828-34.333-8.828-20.601 0-37.279 1.472-37.279 3.434 0 2.452 7.847 27.957 18.15 57.881l17.658 53.955 16.677-49.050c8.828-26.485 17.166-52.483 19.13-57.389z" />
<glyph unicode="&#xe907;" glyph-name="books" data-tags="books" d="M255.937 679.567c-136.015-80.666-249.654-150.735-253.188-156.034-3.533-5.888-3.533-11.187 0-14.72 3.533-2.944 118.35-71.835 255.542-153.090 151.912-90.087 253.776-146.613 259.075-144.846 4.71 1.767 121.295 70.068 257.898 151.323 181.353 107.163 249.065 150.146 247.888 157.212-1.767 10.010-495.776 306.18-511.085 306.769-4.71 0-120.117-65.947-256.131-146.613zM746.414 655.426c123.649-73.013 223.747-134.837 223.158-137.781-1.178-2.356-104.219-65.947-229.635-140.136l-228.457-135.426-227.28 134.837c-125.416 74.778-228.457 137.781-229.635 140.725-2.356 7.066 446.316 273.207 458.093 271.44 5.299-0.589 110.696-60.647 233.757-133.659zM5.105 437.567c-6.477-4.121-6.477-8.243-1.767-15.898 8.243-12.954 494.598-302.059 508.141-302.059 8.832 0 484 277.917 505.197 294.993 10.598 8.832 9.421 21.197-1.767 25.318-5.299 2.356-100.098-50.638-251.421-140.136-133.659-79.489-245.533-144.846-248.477-146.024-3.533-1.178-111.873 60.647-241.411 137.192-277.328 163.689-257.309 153.090-268.497 146.613zM2.161 340.414c-2.356-5.299-0.589-12.954 4.121-17.076 21.786-20.608 501.664-298.525 510.496-296.171 5.299 1.178 121.295 68.89 257.309 149.558 187.241 111.285 247.3 149.558 247.3 158.389 0 5.888-4.121 11.776-9.421 12.954-4.71 0.589-118.35-63.591-252.599-143.081-133.659-79.489-245.533-144.258-247.888-144.258s-111.873 64.18-243.766 141.903c-131.893 78.312-244.944 143.669-250.832 144.846-7.066 1.767-12.365-0.589-14.72-7.066z" />
<glyph unicode="&#xe908;" glyph-name="certificate" data-tags="certificate" d="M942.236 193.055h-513.946v46.722h513.946c15.574 0 31.147 15.574 31.147 31.147v552.88c0 15.574-15.574 31.147-31.147 31.147h-860.47c-15.574 0-31.147-15.574-31.147-31.147v-548.988c0-15.574 15.574-31.147 31.147-31.147h109.019v-46.722h-109.019c-42.829 0-81.765 35.041-81.765 81.765v545.093c0 42.829 35.041 81.765 81.765 81.765h860.47c42.829 0 81.765-35.041 81.765-81.765v-548.988c0-42.829-38.935-81.765-81.765-81.765zM490.586 430.56c0 101.232-81.765 182.996-182.996 182.996s-182.996-81.765-182.996-182.996c0-42.829 15.574-81.765 38.935-112.912v-362.099l136.274 136.274 144.060-144.060v369.886c31.147 31.147 46.722 70.084 46.722 112.912zM307.591 562.94c73.977 0 132.38-58.403 132.38-132.38s-58.403-132.38-132.38-132.38-132.38 58.403-132.38 132.38 62.297 132.38 132.38 132.38zM303.696 165.801l-89.551-89.551v202.463c27.255-15.574 58.403-27.255 93.443-27.255s66.189 11.681 93.443 27.255v-210.25l-97.338 97.338zM128.487 714.787h767.026v-46.722h-767.026v46.722zM545.095 590.194h350.417v-46.722h-350.417v46.722zM665.795 450.028h229.718v-46.722h-229.718v46.722z" />
<glyph unicode="&#xe909;" glyph-name="clipboard" data-tags="clipboard" d="M841.144 828.953h-146.286v36.571c0 20.187-16.384 36.571-36.571 36.571h-128.001v18.286c0 10.112-8.174 18.286-18.286 18.286s-18.286-8.174-18.286-18.286v-18.286h-128.001c-20.187 0-36.571-16.384-36.571-36.571v-36.571h-146.286c-20.187 0-36.571-16.384-36.571-36.571v-841.145c0-20.187 16.384-36.571 36.571-36.571h658.287c20.187 0 36.571 16.384 36.571 36.571v841.145c0 20.187-16.384 36.571-36.571 36.571zM365.715 865.524h292.572v-109.715h-292.572v109.715zM841.144-48.762h-83.858l83.858 83.858v-83.858zM841.144 86.809l-135.57-135.57h-522.717v841.145h146.286v-36.571c0-20.187 16.384-36.571 36.571-36.571h292.572c20.187 0 36.571 16.384 36.571 36.571v36.571h146.286v-705.575zM256 481.524c0-10.112 8.174-18.286 18.286-18.286h475.429c10.112 0 18.286 8.174 18.286 18.286 0 10.094-8.174 18.286-18.286 18.286h-475.429c-10.112 0-18.286-8.192-18.286-18.286zM274.286 353.524h365.715c10.112 0 18.286 8.174 18.286 18.286s-8.174 18.286-18.286 18.286h-365.715c-10.112 0-18.286-8.174-18.286-18.286s8.174-18.286 18.286-18.286zM749.715 280.381h-475.429c-10.112 0-18.286-8.192-18.286-18.286 0-10.112 8.174-18.286 18.286-18.286h475.429c10.112 0 18.286 8.174 18.286 18.286 0 10.094-8.174 18.286-18.286 18.286z" />
<glyph unicode="&#xe90a;" glyph-name="beaker" data-tags="beaker" d="M420.57 316.953c-40.393 0-73.142-32.75-73.142-73.142s32.75-73.142 73.142-73.142 73.142 32.75 73.142 73.142-32.75 73.142-73.142 73.142zM420.57 207.238c-20.187 0-36.571 16.384-36.571 36.571s16.384 36.571 36.571 36.571 36.571-16.384 36.571-36.571-16.384-36.571-36.571-36.571zM731.426 525.629v303.323h54.857c10.112 0 18.286 8.174 18.286 18.286v73.142c0 10.112-8.174 18.286-18.286 18.286h-548.57c-10.112 0-18.286-8.174-18.286-18.286v-73.142c0-10.112 8.174-18.286 18.286-18.286h54.857v-303.323c-42.624-42.276-292.571-297.417-292.571-464.676 0-80.786 65.499-146.286 146.286-146.286h731.428c80.786 0 146.286 65.499 146.286 146.286 0 167.259-249.947 422.399-292.571 464.676zM255.999 865.523v36.571h512v-36.571h-512zM694.855 828.952v-140.488c-91.246-55.131-165.705-2.194-172.343 2.816-8.759 7.753-65.646 51.346-193.371 11.922v125.75h365.713zM877.711-48.761h-731.428c-60.581 0-109.714 49.134-109.714 109.714 0 160.145 272.109 429.513 286.719 443.867 3.566 3.346 5.851 8.009 5.851 13.275v146.943c121.326 40.869 168.393-0.128 168.649-0.347l1.499-1.335c0.677-0.512 46.464-35.803 112.383-35.803 25.253 0 53.449 5.266 83.2 19.547v-129.006c0-5.266 2.286-9.929 5.851-13.275 14.574-14.336 286.701-283.702 286.701-443.867 0-60.581-49.134-109.714-109.714-109.714zM585.14 170.668c-30.299 0-54.857-24.576-54.857-54.857 0-30.299 24.558-54.857 54.857-54.857s54.857 24.558 54.857 54.857c0 30.281-24.558 54.857-54.857 54.857zM585.14 97.524c-10.112 0-18.286 8.174-18.286 18.286 0 10.094 8.174 18.286 18.286 18.286s18.286-8.192 18.286-18.286c0-10.112-8.174-18.286-18.286-18.286zM530.284 572.953c-60.581 0-109.714-49.134-109.714-109.714s49.134-109.714 109.714-109.714 109.714 49.134 109.714 109.714-49.134 109.714-109.714 109.714zM530.284 390.096c-40.393 0-73.142 32.75-73.142 73.142s32.75 73.142 73.142 73.142 73.142-32.75 73.142-73.142-32.75-73.142-73.142-73.142z" />
<glyph unicode="&#xe90b;" glyph-name="details" data-tags="details" d="M196.663 321.554h617.113c6.782 0 20.345 6.782 20.345 20.345 0 6.782-6.782 20.345-20.345 20.345h-617.113c-6.782 0-20.345-6.782-20.345-20.345 6.782-13.562 13.562-20.345 20.345-20.345zM196.663 463.965h617.113c6.782 0 20.345 6.782 20.345 20.345s-6.782 20.345-20.345 20.345h-617.113c-6.782 0-20.345-6.782-20.345-20.345s13.562-20.345 20.345-20.345zM196.663 172.362h617.113c6.782 0 20.345 6.782 20.345 20.345 0 6.782-6.782 20.345-20.345 20.345h-617.113c-6.782 0-20.345-6.782-20.345-20.345 6.782-13.562 13.562-20.345 20.345-20.345zM942.623 864.071h-868.027c-40.688 0-74.596-33.908-74.596-74.596v-725.616c0-40.688 33.908-74.596 74.596-74.596h874.807c40.688 0 74.596 33.908 74.596 74.596v725.616c-6.782 40.688-40.688 74.596-81.377 74.596zM983.312 63.859c0-20.345-13.562-33.908-33.908-33.908h-874.807c-20.345 0-33.908 13.562-33.908 33.908v583.205h942.623v-583.205zM983.312 680.971h-949.404v108.504c0 20.345 13.562 33.908 33.908 33.908h874.807c20.345 0 33.908-13.562 33.908-33.908v-108.504z" />
<glyph unicode="&#xe90c;" glyph-name="device" data-tags="device" d="M807.86 792.367h-591.663v73.178c0 20.187 16.585 36.534 36.995 36.534h517.67c20.413 0 36.995-16.347 36.995-36.534v-73.178zM216.196 97.557v658.274h591.663v-658.274h-591.663zM807.86-12.155c0-20.187-16.585-36.589-36.997-36.589h-517.67c-20.413 0-36.995 16.402-36.995 36.589v73.123h591.663v-73.123zM770.863 938.667h-517.67c-40.823 0-73.993-32.749-73.993-73.123v-877.699c0-40.374 33.169-73.178 73.993-73.178h517.67c40.823 0 73.937 32.804 73.937 73.178v877.699c0 40.374-33.114 73.123-73.937 73.123zM548.995 865.544h-73.937c-10.261 0-18.526-8.174-18.526-18.322 0-10.094 8.265-18.267 18.526-18.267h73.937c10.261 0 18.47 8.174 18.47 18.267 0 10.148-8.209 18.322-18.47 18.322zM512-30.477c20.413 0 36.995 16.402 36.995 36.589s-16.585 36.589-36.995 36.589c-20.411 0-36.941-16.402-36.941-36.589s16.529-36.589 36.941-36.589z" />
<glyph unicode="&#xe90d;" glyph-name="earth" data-tags="earth" d="M625.7 325.382c-34.176 17.573 17.098 17.573-68.369 52.717s-136.759 0-136.759-52.717c0-105.435 68.369-123.009 68.369-123.009-17.098-87.863 0-123.009 17.098-140.58s28.727-43.72 44.16-35.146 24.209 123.009 75.502 175.707 34.193 105.454 0 123.026zM837.796 719.952c-47.141 52.314-106.55 93.11-173.861 117.997-1.298-3.254-2.981-6.346-5.651-8.997-18.286-18.286-54.856-73.142 18.286-73.142 0 0-36.57-109.715 18.286-109.715 47.633 0 95.305 96.384 142.938 73.857zM493.714 554.668c73.142 36.57 54.856 54.856 91.428 54.856s36.57 73.142-36.57 73.142-36.57-91.428-91.428-36.57 18.286 36.57 54.856 73.142-36.57 54.856-54.856 18.286c0 0-54.856 54.856-91.428-36.57 0 0-72.758 43.703-98.926 89.71-36.735-24.795-69.339-55.167-97.023-89.637 15.506-8.1 32.494-19.475 49.665-36.645 54.856-54.856 18.286-109.715 0-146.286s54.856-91.428 54.856-91.428 54.856-36.57 109.715-54.856c0 0 36.57 18.286-36.57 54.856 0 0-54.856 54.856 18.286 73.142 54.856 18.286 18.286-36.57 54.856-36.57s0 54.856 73.142 91.428zM870.638 679.064c11.649-48.877-102.637-47.706-102.637-160.969 0-92.069 103.845-164.991 169.069-198.803 8.686 34.414 13.788 70.254 13.788 107.374 0 94.044-29.843 180.954-80.22 252.397zM512 938.667c-282.77 0-512-229.23-512-512s229.23-512 512-512 512 229.23 512 512-229.23 512-512 512zM512-48.76c-262.565 0-475.427 212.864-475.427 475.427s212.864 475.427 475.427 475.427 475.427-212.864 475.427-475.427-212.864-475.427-475.427-475.427z" />
<glyph unicode="&#xe90e;" glyph-name="chat" data-tags="chat" d="M512.001 883.81c-282.771 0-512-180.114-512-402.286 0-137.179 87.534-258.176 220.964-330.788-8.631-51.931-37.76-115.090-111.25-181.212 0 0 191.763 0.091 297.563 118.199 33.811-5.522 68.828-8.485 104.722-8.485 282.771 0 512 180.114 512 402.286s-229.229 402.286-512 402.286zM512.001 115.81c-41.289 0-81.134 4.462-119.296 12.069-71.68-99.95-201.838-117.212-201.838-117.212 48.146 56.155 63.031 114.944 64.621 163.254-131.566 65.042-218.917 178.377-218.917 307.603 0 201.984 212.864 365.714 475.429 365.714s475.429-163.73 475.429-365.714-212.864-365.714-475.429-365.714z" />
<glyph unicode="&#xe90f;" glyph-name="bar-chart" data-tags="bar-chart" d="M658.285 170.667h146.285v384h-146.285v-384zM694.857 518.095h73.143v-310.857h-73.143v310.857zM0 170.667h146.286v256h-146.286v-256zM36.572 390.095h73.143v-182.857h-73.143v182.857zM877.715 682.667v-512h146.285v512h-146.285zM987.428 207.239h-73.143v438.857h73.143v-438.857zM219.428 170.667h146.286v457.143h-146.286v-457.143zM256 591.239h73.143v-384h-73.143v384zM438.857 170.667h146.286v201.143h-146.286v-201.143zM475.428 335.239h73.143v-128h-73.143v128z" />
<glyph unicode="&#xe910;" glyph-name="fingerprint" data-tags="fingerprint" d="M933.303 85.982c-2.135 0-4.328 0.289-6.463 0.923-12.407 3.52-19.505 16.504-15.985 28.911 65.151 225.518 7.502 475.56 6.867 478.099-31.277 124.3-112.99 217.785-236.251 270.066-11.83 5.078-17.37 18.812-12.349 30.642 5.020 11.888 18.755 17.37 30.585 12.407 137.227-58.284 228.288-162.733 263.372-302.094 2.597-10.964 61.227-264.469-7.386-502.105-2.943-10.214-12.234-16.85-22.39-16.85zM127.327 561.611c-1.616 0-3.289 0.173-4.905 0.577-12.638 2.712-20.659 15.061-17.947 27.642 20.89 97.351 74.961 185.816 152.23 249.177 78.366 64.285 177.39 99.66 278.838 99.66 24.872 0 49.859-2.077 74.269-6.232 12.695-2.135 21.236-14.196 19.101-26.949-2.193-12.695-14.254-21.236-26.891-19.043-21.813 3.636-44.203 5.598-66.478 5.598-90.657 0-179.179-31.681-249.292-89.099-69.133-56.726-117.491-135.842-136.13-222.863-2.366-10.964-12.061-18.466-22.794-18.466zM141.275 76.628c-6.694 0-13.33 2.885-18.004 8.425-8.194 9.926-6.809 24.641 3.116 32.893 93.254 77.212 139.593 196.087 118.010 302.844-21.525 106.527 5.713 177.852 8.425 184.604 44.665 116.452 158.232 194.702 282.704 194.702 105.372 0 201.512-53.61 257.256-143.401l0.404-0.75c3.001-5.194 72.48-128.975 57.245-314.097-1.096-12.869-12.349-22.39-25.16-21.294-12.869 1.039-22.448 12.292-21.351 25.102 13.734 166.657-47.435 280.338-51.013 286.859-47.262 75.711-128.455 120.953-217.381 120.953-105.372 0-201.512-66.305-239.194-165.041l-0.289-0.635c-0.231-0.519-25.045-63.073-5.944-157.77 24.987-123.377-27.584-259.968-133.937-348.028-4.386-3.636-9.637-5.367-14.888-5.367zM552.63-85.332c-3.809 0-7.617 0.981-11.195 2.943-11.311 6.117-15.408 20.313-9.233 31.681 4.443 8.021 9.002 16.273 13.676 24.698 53.263 95.793 119.511 215.073 119.511 375.15 0 155-22.448 199.492-25.853 205.378l-2.251 1.904 0.173 1.212c-21.813 35.951-59.38 57.418-100.467 57.418-48.531 0-92.966-31.45-110.451-78.25l-0.231-0.577c0 0-10.272-27.122-3.636-68.671 0.346-2.251 0.75-4.559 1.27-6.925 2.424-12.638-5.771-24.929-18.408-27.411s-24.872 5.771-27.411 18.408c-0.577 2.885-1.039 5.771-1.5 8.541-8.483 52.802 4.155 87.83 6.348 93.254 24.295 64.747 86.214 108.258 154.019 108.258 56.957 0 108.893-29.257 139.419-78.308 33.874-42.53 35.663-202.204 35.663-234.232 0-172.197-69.537-297.304-125.397-397.829-4.674-8.367-9.175-16.504-13.619-24.525-4.213-7.733-12.176-12.118-20.428-12.118zM254.801-9.984c-6.232 0-12.465 2.481-17.023 7.386-8.829 9.406-8.31 24.179 1.096 32.951 124.243 116.048 148.71 251.023 147.383 343.758-0.173 12.926 10.156 23.487 23.025 23.66 12.811 0.289 23.429-10.041 23.66-22.967 1.154-83.675-18.293-244.098-162.214-378.555-4.501-4.155-10.214-6.232-15.927-6.232zM732.652-57.494c-4.039 0-8.079 1.039-11.772 3.232-11.080 6.463-14.831 20.774-8.367 31.854 0.808 1.385 54.591 95.793 80.789 277.338 1.847 12.753 13.676 21.582 26.43 19.736 12.695-1.789 21.582-13.619 19.736-26.372-27.699-191.99-84.252-290.148-86.675-294.246-4.328-7.444-12.118-11.541-20.14-11.541zM393.204-65.666c-5.424 0-10.849 1.847-15.235 5.713-9.752 8.425-10.849 23.14-2.366 32.893 200.589 231.635 142.42 515.031 141.785 517.859-2.712 12.58 5.309 24.987 17.889 27.757 12.58 2.712 24.987-5.251 27.699-17.889 0.692-3.116 16.735-78.366 6.117-184.892-9.81-98.275-45.184-242.83-158.232-373.361-4.617-5.367-11.137-8.079-17.658-8.079zM58.46 187.476c-6.348 0-12.638 2.539-17.254 7.617-8.714 9.522-7.964 24.295 1.558 32.951 70.979 64.574 69.075 141.381 61.573 181.43-3.636 19.563-7.56 82.001-7.964 89.041-0.808 12.811 8.945 23.891 21.813 24.698s23.948-9.002 24.756-21.871c1.096-18.351 4.617-69.19 7.271-83.329 15.754-84.367-12.003-166.195-76.057-224.479-4.501-4.097-10.099-6.059-15.696-6.059z" />
<glyph unicode="&#xe911;" glyph-name="group" data-tags="group" d="M1024 419.839c0 6.826-6.826 13.654-13.654 13.654v0 0 0l-232.107 102.4 232.107 102.4c6.826 0 13.654 6.826 13.654 13.654s-6.826 13.654-13.654 13.654v0 0c0 0 0 0 0 0l-491.52 232.107c0 0-6.826 0-6.826 0s-6.826 0-6.826 0v0l-491.52-218.453c0 0 0 0 0 0v0 0c-6.826-6.826-13.654-13.654-13.654-20.48s6.826-13.654 13.654-13.654v0 0 0l232.107-102.4-232.107-102.4c-6.826-6.826-13.654-13.654-13.654-20.48s6.826-13.654 13.654-13.654v0 0 0l232.107-102.4-232.107-102.4c-6.826 0-13.654-6.826-13.654-13.654s6.826-13.654 13.654-13.654v0 0 0l491.52-218.453c0 0 6.826 0 6.826 0s6.826 0 6.826 0v0l491.52 218.453c6.826 0 13.654 6.826 13.654 13.654s-6.826 13.654-13.654 13.654v0 0 0l-232.107 102.4 232.107 102.4c6.826 0 13.654 6.826 13.654 13.654zM61.441 658.772l450.56 197.973 450.56-197.973-450.56-197.973-450.56 197.973zM962.559 187.732l-450.56-197.973-450.56 197.973 225.279 95.573 218.453-95.573c0 0 6.826 0 6.826 0s6.826 0 6.826 0v0l218.453 95.573 225.279-95.573zM512 221.866l-450.56 197.973 225.279 95.573 218.453-95.573c0 0 6.826 0 6.826 0s6.826 0 6.826 0v0l218.453 95.573 225.279-95.573-450.56-197.973z" />
<glyph unicode="&#xe912;" glyph-name="lockout" data-tags="lockout" d="M832.743 474.831h-19.725v160.255c-1.004 196.56-135.072 303.581-298.020 303.581-162.897 0-308.957-112.090-303.877-303.581l-0.164-160.049c0 0 2.458-0.215-9.842-0.215-13.006 0-98.715-15.065-98.715-91.475v-366.851c0-81.51 96.471-101.829 98.715-101.829h626.762c2.243 0 93.748 10.17 93.748 101.829v361.791c0.010 86.528-86.579 96.543-88.884 96.543zM349.101 632.965c0 101.89 62.164 183.338 162.897 183.338 99.759 0 162.887-71.248 162.887-183.338l0.102-158.135h-326.050l0.164 158.135zM577.554 35.167l-83.164 83.164-75.245-76.775c-19.284-19.676-50.868-19.994-70.544-0.71-0.133 0.13-0.264 0.26-0.395 0.392v0c-19.683 19.726-19.662 51.669 0.046 71.37l82.631 82.596-75.784 75.657c-19.29 19.258-19.395 50.483-0.234 69.87v0c19.025 19.249 50.052 19.431 69.3 0.406 0.066-0.065 0.131-0.13 0.197-0.195l83.461-83.428 77.307 76.699c19.539 19.385 51.075 19.322 70.536-0.142v0c19.437-19.44 19.435-50.956-0.005-70.393-0.001-0.001-0.002-0.002-0.003-0.003l-83.111-83.084 76.387-76.32c19.092-19.075 19.106-50.016 0.030-69.108-0.192-0.192-0.385-0.382-0.579-0.57v0c-19.809-19.177-51.337-18.922-70.832 0.574z" />
<glyph unicode="&#xe913;" glyph-name="bar-line-chart" data-tags="bar-line-chart" d="M176.817 262.206c0-30.848-23.749-55.855-53.045-55.855s-53.045 25.007-53.045 55.855c0 30.848 23.749 55.855 53.045 55.855s53.045-25.007 53.045-55.855zM468.564 622.158c0-30.848-23.749-55.855-53.045-55.855s-53.045 25.007-53.045 55.855c0 30.848 23.749 55.855 53.045 55.855s53.045-25.007 53.045-55.855zM612.964 479.419c0-30.848-23.749-55.855-53.045-55.855s-53.045 25.007-53.045 55.855c0 30.848 23.749 55.855 53.045 55.855s53.045-25.007 53.045-55.855zM895.871 780.412c0-30.848-23.749-55.855-53.045-55.855s-53.045 25.007-53.045 55.855c0 30.848 23.749 55.855 53.045 55.855s53.045-25.007 53.045-55.855zM122.052 240.875l-28.687 23.285 317.98 391.741 28.687-23.285zM390.875 630.589l26.791 25.444 183.662-193.389-26.791-25.444zM541.438 436.235l-26.791 25.444 337.833 355.727 26.791-25.444zM787.936 483.65h183.454c28.277 0 51.2-22.923 51.2-51.2v-320.74c0-28.277-22.923-51.2-51.2-51.2h-183.454c-28.277 0-51.2 22.923-51.2 51.2v320.74c0 28.277 22.923 51.2 51.2 51.2zM419.568 307.341h183.454c28.277 0 51.2-22.923 51.2-51.2v-144.432c0-28.277-22.923-51.2-51.2-51.2h-183.454c-28.277 0-51.2 22.923-51.2 51.2v144.432c0 28.277 22.923 51.2 51.2 51.2zM41.891 144.291h202.072c23.136 0 41.891-18.755 41.891-41.891v0c0-23.136-18.755-41.891-41.891-41.891h-202.072c-23.136 0-41.891 18.755-41.891 41.891v0c0 23.136 18.755 41.891 41.891 41.891z" />
<glyph unicode="&#xe914;" glyph-name="error-triangle" data-tags="error-triangle" d="M467.398 864.070c-10.917-4.776-25.928-15.011-32.069-21.835-6.823-7.506-107.126-173.995-223.805-371.19-184.912-312.508-211.523-360.272-211.523-384.836 0-38.211 19.788-72.326 51.857-90.751l26.611-15.694h433.283c408.717 0 434.647 0.683 457.164 12.964 49.81 25.928 69.598 88.704 43.668 139.195-27.294 53.222-408.717 691.886-421.683 706.215-31.388 34.799-80.515 45.034-123.502 25.928zM550.642 432.154c-2.73-70.963-4.776-138.514-4.776-150.114 0-21.835-1.364-22.517-25.928-22.517h-26.611l-4.094 77.104c-2.73 41.622-4.776 109.173-4.776 150.114v73.010h70.28l-4.094-127.596zM547.231 200.161c25.928-23.199 7.506-70.28-27.294-70.28-36.846 0-55.269 42.305-30.705 69.598 13.647 15.011 41.622 15.694 57.999 0.683z" />
<glyph unicode="&#xe915;" glyph-name="nodes" data-tags="nodes" d="M392.226 308.554l-157.023-118.325c10.181-17.164 16.029-37.217 16.029-58.639 0-63.425-51.257-114.841-114.484-114.841s-114.484 51.417-114.484 114.841c0 63.425 51.257 114.841 114.484 114.841 22.081 0 42.702-6.271 60.19-17.134l161.794 121.92c-11.776 21.993-18.457 47.142-18.457 73.855 0 29.301 8.037 56.719 22.021 80.157l-188.468 188.468c-17.304-10.542-37.617-16.612-59.342-16.612-63.228 0-114.484 51.417-114.484 114.841s51.257 114.841 114.484 114.841c63.228 0 114.484-51.417 114.484-114.841 0-21.947-6.137-42.456-16.783-59.893l185.644-185.644c25.226 20.587 56.995 33.414 91.697 34.859l41.109 143.362c-33.973 19.92-56.795 56.894-56.795 99.217 0 63.425 51.257 114.841 114.484 114.841s114.484-51.417 114.484-114.841c0-63.425-51.257-114.841-114.484-114.841-1.916 0-3.82 0.047-5.713 0.14l-38.772-135.213c26.178-8.442 49.336-23.64 67.433-43.548l183.711 66.865 0.103-0.283c-0.037 1.188-0.054 2.381-0.054 3.579 0 63.425 51.257 114.841 114.484 114.841s114.484-51.417 114.484-114.841c0-63.425-51.257-114.841-114.484-114.841-43.057 0-80.562 23.843-100.11 59.085l-168.68-61.394c7.224-18.016 11.2-37.693 11.2-58.301 0-30.14-8.504-58.288-23.237-82.161l213.969-213.969c16.857 9.798 36.433 15.408 57.318 15.408 63.228 0 114.484-51.417 114.484-114.841s-51.257-114.841-114.484-114.841c-63.228 0-114.484 51.417-114.484 114.841 0 22.787 6.616 44.022 18.026 61.882l-210.931 210.931c-26.537-21.017-60.050-33.561-96.485-33.561-39.906 0-76.307 15.047-103.874 39.793z" />
<glyph unicode="&#xe916;" glyph-name="desktop" data-tags="desktop" d="M930.908 892.122h-837.818c-51.409 0-93.091-41.682-93.091-93.091v-605.091c0-51.409 41.682-93.091 93.091-93.091h325.818v-93.091h-46.545c-12.87 0-23.273-10.403-23.273-23.273s10.403-23.273 23.273-23.273h279.273c12.87 0 23.273 10.403 23.273 23.273s-10.403 23.273-23.273 23.273h-46.545v93.091h325.818c51.409 0 93.091 41.682 93.091 93.091v605.091c0 51.409-41.682 93.091-93.091 93.091zM558.544 7.758h-93.091v93.091h93.091v-93.091zM977.453 193.94c0-25.693-20.853-46.545-46.545-46.545h-837.818c-25.693 0-46.545 20.853-46.545 46.545v46.545h930.908v-46.545zM977.453 287.031h-930.908v511.999c0 25.693 20.853 46.545 46.545 46.545h837.818c25.693 0 46.545-20.853 46.545-46.545v-511.999z" />
<glyph unicode="&#xe917;" glyph-name="browser" data-tags="browser" d="M162.909 473.211h279.273c12.87 0 23.273 10.403 23.273 23.273s-10.403 23.273-23.273 23.273h-279.273c-12.87 0-23.273-10.403-23.273-23.273s10.403-23.273 23.273-23.273zM162.909 287.030h279.273c12.87 0 23.273 10.403 23.273 23.273 0 12.846-10.403 23.273-23.273 23.273h-279.273c-12.87 0-23.273-10.426-23.273-23.273 0-12.87 10.403-23.273 23.273-23.273zM581.818 100.847h279.273c12.87 0 23.273 10.403 23.273 23.273v372.364c0 12.87-10.403 23.273-23.273 23.273h-279.273c-12.87 0-23.273-10.403-23.273-23.273v-372.364c0-12.87 10.403-23.273 23.273-23.273zM605.090 473.211h232.727v-325.819h-232.727v325.819zM930.909 892.122h-837.819c-51.409 0-93.091-41.682-93.091-93.091v-744.728c0-51.409 41.682-93.091 93.091-93.091h837.819c51.409 0 93.091 41.682 93.091 93.091v744.728c0 51.409-41.682 93.091-93.091 93.091zM977.455 54.302c0-25.716-20.853-46.545-46.545-46.545h-837.819c-25.693 0-46.545 20.829-46.545 46.545v558.545h930.909v-558.545zM977.455 659.393h-930.909v139.636c0 25.693 20.853 46.545 46.545 46.545h837.819c25.693 0 46.545-20.853 46.545-46.545v-139.636zM279.272 799.030c-25.693 0-46.545-20.853-46.545-46.545 0-25.716 20.853-46.545 46.545-46.545s46.545 20.829 46.545 46.545c0 25.693-20.853 46.545-46.545 46.545zM418.909 799.030c-25.693 0-46.545-20.853-46.545-46.545 0-25.716 20.853-46.545 46.545-46.545s46.545 20.829 46.545 46.545c0 25.693-20.853 46.545-46.545 46.545zM162.909 100.847h279.273c12.87 0 23.273 10.403 23.273 23.273 0 12.846-10.403 23.273-23.273 23.273h-279.273c-12.87 0-23.273-10.426-23.273-23.273 0-12.87 10.403-23.273 23.273-23.273zM139.636 799.030c-25.693 0-46.545-20.853-46.545-46.545 0-25.716 20.853-46.545 46.545-46.545s46.545 20.829 46.545 46.545c0 25.693-20.853 46.545-46.545 46.545z" />
<glyph unicode="&#xe918;" glyph-name="chat-square" data-tags="chat-square" d="M804.567 902.1h-585.134c-121.179 0-219.433-98.253-219.433-219.433v-329.144c0-121.179 98.253-219.433 219.433-219.433h36.567v-182.856l256 182.856h292.567c121.179 0 219.433 98.253 219.433 219.433v329.144c0 121.179-98.253 219.433-219.433 219.433zM987.433 353.523c0-100.997-81.879-182.856-182.866-182.856h-305.51l-206.49-147.425v147.425h-73.144c-100.987 0-182.856 81.859-182.856 182.856v329.144c0 100.987 81.879 182.856 182.856 182.856h585.144c100.987 0 182.856-81.879 182.856-182.856v-329.144z" />
<glyph unicode="&#xe919;" glyph-name="cog-filled" data-tags="cog-filled" d="M1000.723 496.485l-106.844 32.047c-9.031 33.907-23.063 65.557-40.356 95.116l53.435 99.234c9.1 9.1 9.1 23.831 0 32.908l-65.815 65.839c-9.1 9.1-23.831 9.1-32.931 0l-99.118-53.388c-29.58 17.362-61.3 31.441-95.278 40.449l-32.001 106.705c0 12.848-10.404 23.272-23.272 23.272h-93.090c-12.87 0-23.272-10.427-23.272-23.272l-32.001-106.682c-33.977-9.031-65.676-23.11-95.278-40.471l-99.118 53.388c-9.1 9.1-23.831 9.1-32.931 0l-65.815-65.839c-9.1-9.076-9.1-23.808 0-32.908l53.435-99.234c-17.292-29.556-31.348-61.207-40.356-95.116l-106.844-32.047c-12.87 0-23.272-10.427-23.272-23.272v-93.090c0-12.87 10.404-23.272 23.272-23.272l106.821-32.047c9.053-33.907 23.063-65.557 40.379-95.139l-53.435-99.211c-9.1-9.1-9.1-23.831 0-32.931l65.815-65.815c9.1-9.1 23.831-9.1 32.931 0l99.094 53.364c29.58-17.362 61.324-31.441 95.301-40.471l32.001-106.659c0-12.87 10.404-23.272 23.272-23.272h93.090c12.87 0 23.272 10.404 23.272 23.272l32.001 106.682c33.977 9.053 65.676 23.11 95.278 40.471l99.118-53.388c9.1-9.1 23.831-9.1 32.931 0l65.815 65.815c9.1 9.1 9.1 23.831 0 32.931l-53.435 99.211c17.316 29.58 31.348 61.231 40.379 95.139l106.821 32.047c12.87 0 23.272 10.404 23.272 23.272v93.090c0 12.848-10.404 23.272-23.272 23.272zM512 286.915c-77.172 0-139.728 62.556-139.728 139.752 0 77.148 62.556 139.728 139.728 139.728s139.728-62.556 139.728-139.728c0-77.172-62.556-139.752-139.728-139.752z" />
</font>
</defs>
</svg>
